<?xml version="1.0" standalone="no"?>
<!DOCTYPE svg PUBLIC "-//W3C//DTD SVG 1.1//EN" "http://www.w3.org/Graphics/SVG/1.1/DTD/svg11.dtd" >
<svg xmlns="http://www.w3.org/2000/svg">
<metadata></metadata>
<defs>
<font id="heroregular" horiz-adv-x="1261" >
<font-face units-per-em="2048" ascent="1536" descent="-512" />
<missing-glyph horiz-adv-x="559" />
<glyph horiz-adv-x="0" />
<glyph horiz-adv-x="682" />
<glyph unicode=" "  horiz-adv-x="559" />
<glyph unicode="&#x09;" horiz-adv-x="559" />
<glyph unicode="&#xa0;" horiz-adv-x="559" />
<glyph unicode="!" horiz-adv-x="374" d="M70 51q0 -30 25 -48t54.5 -19.5t54.5 16.5t25 51v70q0 44 -39.5 61.5t-79.5 -0.5t-40 -61v-70zM70 344v903q0 35 24 54.5t52.5 19t52.5 -20t24 -53.5v-903q0 -44 -38.5 -62t-76.5 0.5t-38 61.5z" />
<glyph unicode="&#x22;" horiz-adv-x="479" d="M43 1042v220q0 46 35.5 65.5t71.5 0.5t36 -66v-220q0 -43 -36 -61t-71.5 0t-35.5 61zM279 1042v220q0 46 34.5 65.5t69.5 0.5t35 -66v-220q0 -43 -35 -61t-69.5 0t-34.5 61z" />
<glyph unicode="#" horiz-adv-x="1064" d="M27 485q0 29 23.5 50.5t51.5 21.5h111l35 193h-98q-46 0 -65 34.5t0 70t65 38.5h122q9 59 30 177.5t30 176.5q6 66 76 66q37 0 53 -25.5t14 -60.5l-59 -334h272l62 354q6 48 45 61t71 -12.5t21 -68.5l-60 -334h93q27 0 45.5 -14t23 -34.5t0.5 -41.5t-22.5 -36t-46.5 -17 h-115l-33 -193h100q30 0 53 -19.5t23 -52.5q0 -32 -21 -51.5t-55 -19.5h-124l-60 -361q-14 -47 -52 -62.5t-67 7.5t-20 70l57 346h-272l-64 -369q-3 -49 -49 -60q-43 -11 -75 16q-29 26 -17 65l59 348h-86q-29 0 -52 20t-23 51zM348 551h291l35 205h-289z" />
<glyph unicode="$" horiz-adv-x="1390" d="M72 274q-11 41 20 68t70 19.5t47 -50.5q17 -61 84 -108.5t145 -70t146 -21.5v469q-65 6 -109 11.5t-100 17t-93 26.5t-75.5 40t-61 58t-37 80t-14.5 105q0 86 46 155.5t120 112t156.5 66.5t167.5 30v96q0 33 21 52.5t46.5 20t46.5 -18.5t21 -54v-98q373 -28 465 -252 q15 -37 -13 -62.5t-67.5 -22t-52.5 35.5q-60 152 -332 172v-453q67 -6 111 -11t103.5 -16.5t98 -26t80 -39t66 -56.5t40 -77.5t15.5 -102.5q0 -82 -31.5 -148.5t-82 -109.5t-119.5 -72.5t-138 -43.5t-143 -18v-108q0 -30 -21 -47.5t-46.5 -18.5t-46.5 16.5t-21 49.5v111 q-82 5 -158.5 22t-151 49.5t-128.5 90t-74 132.5zM242 913q0 -46 18 -79t45 -53.5t75.5 -34.5t92 -20.5t111.5 -12.5v438q-56 -3 -112 -17.5t-109.5 -41.5t-87 -73.5t-33.5 -105.5zM719 111q66 4 127 19.5t116.5 44t89 78.5t33.5 114q0 45 -20 79t-50.5 54.5t-82 34.5 t-98 20t-115.5 12v-456z" />
<glyph unicode="%" horiz-adv-x="1257" d="M25 1042q0 115 77 202t197 87q115 0 194.5 -83.5t79.5 -205.5q0 -114 -76.5 -204t-197.5 -90q-117 0 -195.5 82.5t-78.5 211.5zM82 11q-12 33 10 69l893 1251q12 19 32 26t37.5 0.5t32 -20t16 -34.5t-10.5 -43l-887 -1260q-31 -37 -71 -29.5t-52 40.5zM152 1042 q0 -65 41 -117.5t106 -52.5q64 0 103 47.5t42 124.5q-2 64 -42 113t-103 49q-61 0 -104 -48.5t-43 -115.5zM604 274q0 115 77.5 202t197.5 87q115 0 194.5 -83.5t79.5 -205.5q0 -114 -76.5 -204t-197.5 -90q-117 0 -196 82.5t-79 211.5zM731 274q0 -65 41.5 -117.5 t106.5 -52.5q64 0 103 47.5t42 124.5q-2 64 -42 113t-103 49q-61 0 -104.5 -49t-43.5 -115z" />
<glyph unicode="&#x26;" d="M49 367q0 104 68 184.5t170 97.5q-99 21 -154 104.5t-55 184.5q0 77 28.5 141t76.5 107.5t112 73.5t133.5 43.5t142.5 13.5q76 0 145 -10.5t133.5 -35.5t111.5 -62.5t75.5 -95t28.5 -128.5q0 -31 -21.5 -49t-48 -18t-48 18t-21.5 49q0 54 -30 94t-81.5 62t-112 32.5 t-131.5 10.5q-91 0 -169.5 -27.5t-130.5 -85t-52 -135.5q0 -64 28.5 -109.5t79 -70.5t110 -36t132.5 -11h590q29 0 47 -21t19.5 -46t-16 -46t-50.5 -21h-84v-210q0 -89 -28.5 -158.5t-76 -114t-114 -74t-138 -41.5t-151.5 -12q-77 1 -147 12.5t-139.5 40t-119.5 73 t-81 115.5t-31 161zM186 362q0 -72 36.5 -126.5t96 -84t122.5 -43.5t128 -14q66 0 127 13t118.5 42t92.5 84t35 129v213h-373q-63 0 -113.5 -4.5t-103 -18t-87 -36t-57 -62t-22.5 -92.5z" />
<glyph unicode="'" horiz-adv-x="309" d="M68 1040v220q0 44 35 63t69.5 0.5t34.5 -63.5v-220q0 -32 -21.5 -50t-48 -18t-48 18t-21.5 50z" />
<glyph unicode="(" horiz-adv-x="540" d="M45 588q0 208 77 405t216 328q21 20 46.5 25.5t44.5 -4t31 -26t7 -42t-29 -49.5q-117 -102 -179 -274.5t-62 -360.5q0 -187 63 -351.5t184 -267.5v2q27 -21 30 -53t-21 -59q-27 -23 -54.5 -21.5t-48.5 23.5q-148 129 -226.5 321t-78.5 404z" />
<glyph unicode=")" horiz-adv-x="555" d="M20.5 -105q-7.5 37 26.5 72q125 95 187.5 260.5t62.5 354.5q0 190 -65.5 367t-186.5 282q-36 31 -23 71.5t50 50t73 -21.5q146 -128 223.5 -326.5t77.5 -412.5t-78.5 -408.5t-224.5 -320.5q-34 -34 -74.5 -19.5t-48 51.5z" />
<glyph unicode="*" horiz-adv-x="565" d="M31.5 1171q-2.5 34 25.5 48.5t72 -2.5l86 -56l-2 96q0 42 31 60t61.5 1.5t28.5 -58.5l-4 -103l67 64q32 26 67 11t37.5 -48t-36.5 -64l-76 -53l86 -51q38 -20 29 -62q-8 -35 -41 -46q-30 -11 -64 12l-77 63l6 -113q0 -41 -31 -58t-60 0.5t-24 59.5l2 111l-74 -68 q-45 -30 -83 -1q-31 25 -25 60q5 31 41 48l92 45l-94 51q-38 19 -40.5 53z" />
<glyph unicode="+" horiz-adv-x="1091" d="M70 596q0 33 20.5 51.5t52.5 18.5h306v309q0 31 19.5 51.5t53.5 20.5q31 0 52.5 -21.5t21.5 -50.5v-309h305q46 0 65 -33.5t0 -68.5t-65 -38h-305v-307q0 -33 -21.5 -53.5t-52.5 -20.5q-35 0 -54 20t-19 54v307h-306q-30 0 -51.5 21t-21.5 49z" />
<glyph unicode="," horiz-adv-x="284" d="M-14 -150.5q-4 22.5 6 46.5l84 196q19 42 60.5 43.5t65.5 -30.5t3 -72l-92 -193q-13 -26 -33.5 -37t-39 -6.5t-34.5 17.5t-20 35.5z" />
<glyph unicode="-" horiz-adv-x="747" d="M75 573.5q-19 34.5 1.5 68.5t66.5 34h414q36 0 57 -21.5t21.5 -47t-20.5 -47t-58 -21.5h-414q-49 0 -68 34.5z" />
<glyph unicode="." horiz-adv-x="288" d="M23 84q0 38 26 62t66 24t64 -24t24 -62t-24 -62t-64 -24t-66 24t-26 62z" />
<glyph unicode="/" horiz-adv-x="751" d="M-33 -146.5q-4 22.5 6 46.5l615 1443q16 36 56.5 39t67 -25.5t9.5 -68.5l-619 -1446q-13 -27 -35 -38t-42 -5.5t-37 19t-21 36z" />
<glyph unicode="0" horiz-adv-x="1097" d="M53 469v371q-1 94 25 173.5t71.5 136t106.5 96t130 58.5t142 19q92 0 176.5 -31t153 -89t109 -152.5t39.5 -210.5v-371q1 -117 -39.5 -211.5t-109 -153t-153 -89.5t-176.5 -31t-176.5 31t-152.5 89.5t-107.5 153t-38.5 211.5zM195 469q-1 -170 96.5 -261t234.5 -91 q66 0 124 20t107 60t77.5 110t27.5 162v371q1 91 -27.5 160.5t-77 109.5t-107 60t-124.5 20q-65 0 -122.5 -20t-105.5 -60t-76 -109.5t-27 -160.5v-371z" />
<glyph unicode="1" horiz-adv-x="661" d="M102 792q-17 35 4 76l297 404q24 26 59.5 29.5t62 -16.5t26.5 -56v-1190q0 -30 -21.5 -47t-48 -17t-48 17t-21.5 47v1003l-174 -245q-29 -45 -74 -42.5t-62 37.5z" />
<glyph unicode="2" horiz-adv-x="1163" d="M92.5 54.5q-17.5 49.5 26.5 84.5q163 118 281.5 207.5t207.5 159t117 90.5q80 57 120 145.5t27 180.5q-17 121 -102 185t-209 64q-131 0 -213.5 -57.5t-99.5 -179.5q-3 -27 -19.5 -44t-38 -18t-42 6t-33 28t-9.5 48q15 119 80 200.5t160 118t215 36.5q171 0 297 -99 t156 -268q24 -129 -33 -247.5t-164 -198.5l-246 -193l-270 -178l301 12h367q29 0 49.5 -14t25.5 -34.5t0.5 -40.5t-24 -34t-49.5 -14h-805q-56 5 -73.5 54.5z" />
<glyph unicode="3" horiz-adv-x="1161" d="M74 367q-5 55 41 73q40 16 73 -7q23 -16 23 -44q7 -65 31 -113.5t56.5 -76.5t77.5 -44.5t86.5 -22t92.5 -5.5q81 0 146.5 33t105 85t56 118.5t5.5 131.5t-53.5 125.5t-112.5 98.5q-48 20 -98 20q-60 0 -106 -24l4 2q-37 -23 -77 -2.5t-40 63.5q0 36 25 58l360 333h-588 q-31 0 -49 21t-18 46t18 46t49 21h727q56 0 76.5 -46t-24.5 -92l-269 -262l-112 -63q80 19 147 6.5t120.5 -50.5t91 -92.5t57.5 -120t20 -132.5q0 -123 -57.5 -227.5t-164 -168t-237.5 -63.5q-445 0 -483 375z" />
<glyph unicode="4" horiz-adv-x="1048" d="M33.5 333q-23.5 38 11.5 95v-2l506 862q17 37 58 39t65 -29.5t0 -76.5l-481 -797h612v825q0 28 19.5 47t49.5 19q29 0 49.5 -19t20.5 -47v-1200q0 -25 -14.5 -42t-35 -21.5t-40.5 -0.5t-34.5 20.5t-14.5 41.5v248h-680q-68 0 -91.5 38z" />
<glyph unicode="5" horiz-adv-x="1148" d="M55 348q-9 54 24 80.5t72.5 10.5t45.5 -64q11 -77 40.5 -129t76.5 -79.5t99.5 -38.5t121.5 -11q64 0 118.5 19.5t92.5 52.5t65 76t40 89.5t13 94.5q0 60 -21.5 114.5t-62 99t-107 71t-149.5 26.5h-368q-31 0 -52.5 18t-21.5 47v394q0 40 24.5 62t65.5 22h668 q34 0 53.5 -22t20 -48t-19 -48t-54.5 -22h-617v-270h301q118 0 213 -37t154 -100t90 -142.5t31 -167.5q0 -86 -32 -167t-90.5 -147t-150.5 -106t-202 -40q-200 0 -327.5 87.5t-154.5 274.5z" />
<glyph unicode="6" horiz-adv-x="1150" d="M90 403v383q0 156 46.5 264.5t170.5 188.5q102 58 221 71.5t232.5 -23t193.5 -118.5q28 -29 15 -65t-46.5 -44t-68.5 21q-94 97 -274 97q-103 0 -183 -48q-92 -55 -129 -138.5t-37 -196.5v-74q55 95 147 140.5t193 45.5q128 0 236.5 -57.5t173.5 -162t66 -234.5 q1 -106 -39 -196.5t-108 -151t-158 -94.5t-189 -34q-195 0 -329 121.5t-134 304.5zM236 403q0 -132 93 -210t226 -78q140 0 241 93.5t101 244.5q0 132 -94.5 223.5t-229.5 91.5q-162 0 -249.5 -103t-87.5 -262z" />
<glyph unicode="7" horiz-adv-x="1058" d="M41.5 1230q0.5 27 19.5 50t52 23h764q67 0 88.5 -36t-13.5 -93l-643 -1149q-21 -35 -65 -35q-28 0 -51 21.5t-23 47.5q0 21 8 33l604 1065h-669q-34 0 -53 23t-18.5 50z" />
<glyph unicode="8" horiz-adv-x="1273" d="M86 379q0 118 74.5 193.5t201.5 97.5v4q-109 28 -172 104t-63 187q0 88 43 158.5t113 113.5t159.5 66.5t183 23t183 -24.5t159.5 -67t113 -113.5t43 -156.5q0 -109 -52.5 -179.5t-166.5 -111.5v-4q123 -22 192.5 -100.5t69.5 -194.5q0 -84 -32 -151t-84.5 -110.5 t-123.5 -72.5t-146 -41t-156 -12q-66 1 -128 9.5t-123.5 27t-112.5 49.5t-91 72.5t-62 101t-22 131.5zM229 375q0 -69 38.5 -120.5t101.5 -78t127.5 -39t130.5 -12.5q51 0 101.5 6.5t105 24t95 44.5t67 72t26.5 103q0 54 -34 98.5t-90 71.5t-127 42t-145.5 15t-145.5 -14.5 t-127 -42t-90 -71.5t-34 -99zM268 969q0 -54 30.5 -98t81 -71t114.5 -41.5t130.5 -14.5t130.5 14.5t114.5 41.5t81 71t30.5 98q0 62 -39.5 110.5t-102 73.5t-138.5 37t-152.5 0t-139 -37t-102 -73.5t-39.5 -110.5z" />
<glyph unicode="9" horiz-adv-x="1144" d="M61 823q-1 106 39.5 196.5t109 150.5t157.5 94t184 34q146 0 262 -71q95 -57 149 -151.5t54 -203.5v-407q0 -222 -137.5 -356t-356.5 -134q-262 0 -387 150q-27 35 -10.5 73.5t51.5 45.5t66 -23q44 -55 120.5 -81.5t161.5 -26.5q169 0 262 94t93 256v92 q-49 -89 -147.5 -136.5t-199.5 -47.5q-128 0 -235.5 57.5t-171 161.5t-64.5 233zM203 823q0 -132 97 -224.5t230 -92.5q150 0 245 81t95 197v86q0 75 -34.5 139.5t-96.5 102.5q-79 51 -188 51q-142 0 -245 -94t-103 -246z" />
<glyph unicode=":" horiz-adv-x="323" d="M41 84q0 38 26 62t66 24t64 -24t24 -62t-24 -62t-64 -24t-66 24t-26 62zM43 770q0 38 25 62t65 24t65 -24t25 -62t-25 -62t-65 -24t-65 24t-25 62z" />
<glyph unicode=";" horiz-adv-x="317" d="M-14 -150.5q4 -22.5 20 -35.5t34.5 -17.5t39 6.5t33.5 37l92 193q21 40 -5.5 72.5t-70.5 31.5t-63 -43l-74 -198q-10 -24 -6 -46.5zM43 770q0 38 25 62t65 24t65 -24t25 -62t-25 -62t-65 -24t-65 24t-25 62z" />
<glyph unicode="&#x3c;" horiz-adv-x="634" d="M53 578q-67 56 2 122l355 340q19 21 42.5 26t42 -5t30.5 -26.5t8.5 -40.5t-23.5 -46l-330 -311l328 -301q21 -20 24 -43.5t-9 -41t-30 -29t-42.5 -8.5t-44.5 22z" />
<glyph unicode="=" horiz-adv-x="905" d="M76.5 516.5q17.5 33.5 62.5 36.5h580q44 0 62.5 -32.5t0 -66t-62.5 -36.5h-580q-43 0 -61.5 32.5t-1 66zM78.5 735.5q-17.5 33.5 0 67t60.5 33.5h580q44 0 63 -33.5t0.5 -67t-63.5 -33.5h-580q-43 0 -60.5 33.5z" />
<glyph unicode="&#x3e;" horiz-adv-x="671" d="M66.5 994q-3.5 24 8.5 40.5t30.5 26.5t42 5t42.5 -26l355 -340q69 -66 2 -122l-352 -342q-20 -19 -44.5 -22t-43 8.5t-30.5 29t-9 41t24 43.5l324 301l-326 311q-20 22 -23.5 46z" />
<glyph unicode="?" horiz-adv-x="1234" d="M29 1036q22 67 66 118.5t97 82t119 50.5t126 27t124 7q77 0 156 -15.5t154.5 -50t133.5 -83t92.5 -121t32.5 -158.5q-1 -46 -12.5 -85.5t-26.5 -68.5t-44 -57t-50 -44.5t-62 -38t-62.5 -31t-67.5 -29.5q-49 -20 -78 -34t-62.5 -37t-49 -51t-15.5 -63v-49q0 -40 -37 -57 t-73.5 -0.5t-36.5 57.5v51q0 37 9 69t22 56t38 47.5t44 38t54.5 33t56.5 27.5t60 26q45 18 72 30.5t63 35.5t56.5 45.5t36 57t16.5 75.5q1 60 -26 109.5t-71 82.5t-100.5 56t-113.5 33t-111 10q-61 0 -118 -9t-115.5 -29.5t-102 -61.5t-61.5 -99q-11 -34 -49.5 -38.5 t-67.5 21.5t-16 64zM442 49v53q0 32 26.5 50.5t58.5 19t58.5 -18t26.5 -51.5v-53q0 -33 -26.5 -51t-58.5 -16.5t-58.5 19.5t-26.5 48z" />
<glyph unicode="@" horiz-adv-x="1568" d="M43 449q0 193 96.5 356.5t262 258.5t360.5 95q198 0 360.5 -88.5t258.5 -252t96 -369.5q0 -60 -7 -122t-26 -128.5t-47 -117t-74 -83.5t-104 -33q-158 0 -175 164q-22 -61 -74.5 -101.5t-110 -55.5t-120.5 -15q-189 0 -330.5 140.5t-144.5 336.5q0 217 135 352.5 t336 135.5q95 0 182 -44t123 -128v41q0 34 36.5 47.5t73 -3.5t36.5 -55v-637q0 -45 33 -45q28 0 49.5 20.5t34 56.5t20.5 72t11 81.5t4 70t1 50.5q0 165 -75.5 298t-207.5 207t-294 74q-157 0 -290 -77.5t-210.5 -211t-77.5 -290.5q0 -142 65 -268.5t181 -209.5 q154 -104 332 -104q109 0 190 33q36 15 64.5 -10t24.5 -63t-46 -54q-100 -39 -233 -39q-225 0 -414 131q-143 101 -224 256.5t-81 327.5zM408 434q0 -139 101.5 -240.5t233.5 -101.5q117 0 207 81t90 192v122q0 132 -88.5 219t-206.5 87q-150 0 -243.5 -97.5t-93.5 -261.5z " />
<glyph unicode="A" horiz-adv-x="1427" d="M4 80l619 1218q17 39 67 39q46 0 66 -39l616 -1212q12 -20 12 -37q0 -24 -24 -43q-25 -19 -54 -19q-12 0 -25 3q-32 8 -46 37l-160 317h-770l-166 -324q-19 -36 -59 -37h-2q-38 1 -64 29q-16 18 -17 39q0 14 7 29zM367 473h645l-322 645z" />
<glyph unicode="B" horiz-adv-x="1406" d="M158 74v1155q0 31 22 52.5t53 21.5h486q52 0 102.5 -6.5t107.5 -20.5t104.5 -41.5t86.5 -65t61.5 -94.5t22.5 -127q0 -82 -40 -147t-117 -96q117 -37 184 -117.5t67 -200.5q0 -88 -31 -157t-81.5 -111.5t-121.5 -70t-143.5 -38t-154.5 -10.5h-533q-31 0 -53 21.5 t-22 52.5zM307 133h459q74 0 136 11t119.5 37.5t90.5 79t33 126.5q0 116 -88 173.5t-230 57.5h-520v-485zM307 752h418q70 0 126.5 10t104 31.5t73.5 61t26 93.5q0 50 -23 90t-58.5 64t-82 39.5t-88.5 21.5t-84 6h-412v-417z" />
<glyph unicode="C" horiz-adv-x="1366" d="M80 670q0 249 158 431.5t397 219.5q64 9 123 9q290 0 487 -206q17 -20 18 -42t-12.5 -38t-32 -26t-41 -6.5t-38.5 20.5q-97 103 -215 135q-77 21 -167 21q-48 0 -100 -6q-195 -30 -312.5 -163.5t-117.5 -350.5q0 -114 42 -216.5t113 -175t167 -115t201 -42.5 q119 0 237 59q103 54 168 137q13 20 35.5 25.5t42 -2.5t35.5 -23q18 -16 19 -42q0 -20 -13 -40q-80 -113 -221 -182q-161 -74 -308 -74q-130 0 -251 52t-212.5 141.5t-146.5 220.5t-55 279z" />
<glyph unicode="D" horiz-adv-x="1345" d="M80 88v1129q0 35 28 60.5t66 25.5h447q119 0 220 -36.5t171.5 -99t120.5 -146t74 -177.5t24 -193t-24 -193t-74 -177t-120.5 -145.5t-171.5 -99t-220 -36.5h-447q-38 0 -66 26.5t-28 61.5zM227 133h394q111 0 200.5 44.5t145 118.5t85 165t29.5 190t-29.5 190.5t-85 166 t-145 119t-200.5 44.5h-394v-1038z" />
<glyph unicode="E" horiz-adv-x="1308" d="M156 90v1124q0 36 26 62.5t68 26.5h864q25 0 42 -13q16 -14 20 -34q2 -9 2 -17q0 -11 -2 -21q-4 -20 -21.5 -33.5t-42.5 -13.5h-809v-460h770q39 -1 55 -33q9 -17 9 -33q1 -16 -7 -32q-16 -33 -57 -33h-770v-445h809q41 1 60 -33q10 -18 10 -37q0 -16 -8 -31 q-16 -34 -62 -34h-862q-42 0 -68 26t-26 64z" />
<glyph unicode="F" horiz-adv-x="1263" d="M158 51v1163q0 36 27 62.5t63 26.5h844q30 0 47.5 -20t17.5 -44.5t-17.5 -44.5t-47.5 -20h-787v-515h748q28 0 45 -20t17.5 -43.5t-16 -43.5t-46.5 -20h-748v-479q-1 -48 -37 -68q-18 -10 -37 -10q-18 -1 -36 9q-37 20 -37 67z" />
<glyph unicode="G" horiz-adv-x="1443" d="M72 664q0 154 70.5 293.5t196 236t279.5 125.5q47 6 107 6q141 0 270.5 -49t210.5 -143q17 -21 18.5 -45t-11.5 -41.5t-31 -29t-41 -7t-41 25.5q-84 97 -212 134q-71 21 -139 21q-55 0 -108 -13q-85 -20 -161 -66.5t-134.5 -113t-92.5 -155t-34 -186.5q2 -141 72 -264 t185 -196t245 -76h9q112 0 216 47q108 48 174 137v273h-368q-45 0 -62 34q-7 16 -7 32q0 18 9 36q19 33 60 33h434q78 0 78 -76v-342q0 -45 -23 -68q-89 -118 -229 -183q-137 -62 -284 -62h-9q-130 1 -250 53.5t-208.5 142.5t-140.5 217q-48 120 -48 253v16z" />
<glyph unicode="H" horiz-adv-x="1398" d="M152 59v1194q0 35 23 55q22 19 49 19l2 -1q28 0 50.5 -20t22.5 -53v-559h754v559q-1 46 37 65q19 10 37.5 10t37.5 -10q37 -19 37 -65v-1194q0 -35 -24 -56q-22 -21 -50 -21q-1 0 -2 -1q-28 1 -50 21q-24 20 -23 57v506h-754v-506q0 -37 -23 -57t-50.5 -18.5t-50.5 22 t-23 53.5z" />
<glyph unicode="I" horiz-adv-x="450" d="M141 51v1225q1 48 39 68q19 10 38 9l38 -10q38 -20 39 -67v-1225q0 -33 -24 -53t-53 -20h-1q-28 0 -52 19t-24 54z" />
<glyph unicode="J" horiz-adv-x="1185" d="M-16 406v7q0 40 33 60q20 12 41 12q17 0 34 -7q39 -18 43 -70q9 -135 104.5 -215t229.5 -80q99 0 188 43.5t144 122.5t55 174v716h-393q-36 0 -56.5 21.5t-20.5 46.5t20.5 46.5t56.5 21.5h461q28 0 49 -20t24 -48v-784q1 -134 -75 -245t-197 -172t-256 -61 q-128 0 -237 56t-175 155t-73 220z" />
<glyph unicode="K" horiz-adv-x="1284" d="M154 57v1192q0 33 24 52q23 19 49 19h1q28 0 51.5 -19t23.5 -52v-651l199 201l557 499q27 24 56 24q12 0 24 -4q43 -14 51 -50q2 -8 1 -16q0 -29 -24 -56l-542 -481l581 -606q27 -31 27 -57v-6q-4 -28 -23 -47q-17 -16 -44 -16q-4 1 -8 1q-33 2 -60 28l-578 611 l-217 -191v-375q0 -33 -23.5 -52t-51 -19.5t-51 18.5t-23.5 53z" />
<glyph unicode="L" horiz-adv-x="1179" d="M156 76v1175q0 34 23.5 53.5t52 19.5t52 -19.5t23.5 -53.5v-1116h766q37 0 58 -21t21 -46.5t-21 -46.5t-58 -21h-840q-77 0 -77 76z" />
<glyph unicode="M" horiz-adv-x="1642" d="M160 55v1180q0 42 26 65q20 17 43 17q9 1 17 -1q34 -8 53 -44l500 -778l495 778q23 36 57 43q8 2 15 2q24 0 44 -18q26 -23 26 -64v-1180q0 -46 -38 -65q-19 -10 -37 -10l-37 10q-38 19 -38 65v932l-418 -653q-25 -44 -71.5 -44t-69.5 44l-418 651v-930q1 -46 -37 -65 q-19 -10 -37.5 -10t-37.5 10q-37 19 -37 65z" />
<glyph unicode="N" horiz-adv-x="1415" d="M145 57v1174q1 49 31 73q23 18 50 18q10 0 20 -2q40 -8 65 -46l789 -1055l-21 309v725q0 31 25 49q24 18 53 18h2q27 0 51 -18t25 -49v-1175q0 -48 -37 -72q-26 -17 -57 -16q-13 0 -25 2q-44 10 -65 45l-766 1026l16 -283v-723q0 -47 -39 -67q-20 -10 -39 -10l-39 10 q-39 20 -39 67z" />
<glyph unicode="O" horiz-adv-x="1525" d="M76 674q0 244 150 426.5t392 220.5q50 6 104.5 6.5t113.5 -6.5q240 -37 399.5 -218t159.5 -429q0 -155 -53.5 -287.5t-144 -221.5t-209.5 -138.5t-249 -49.5q-138 0 -259 48.5t-211 136.5t-141.5 220.5t-51.5 291.5zM229 668q0 -164 67.5 -290t183 -192.5t259.5 -66.5 q104 0 195.5 38t160 107t108.5 173.5t40 230.5q0 198 -118.5 341.5t-307.5 174.5q-46 6 -90.5 6t-87.5 -6q-187 -29 -298.5 -168.5t-111.5 -347.5z" />
<glyph unicode="P" horiz-adv-x="1310" d="M156 53v1180q0 32 22 52t53 20h445q128 0 230 -40t163.5 -107.5t94 -150t32.5 -173.5q0 -94 -32.5 -174.5t-95.5 -142t-165.5 -97t-232.5 -35.5h-367v-330q-1 -44 -37 -62q-19 -9 -37 -9t-36 8q-37 18 -37 61zM303 518h367q98 0 174 27t120 73q45 44 67 100q20 51 20 106 v10q-1 64 -26.5 123.5t-71 107.5t-117.5 77t-158 29h-375v-653z" />
<glyph unicode="Q" horiz-adv-x="1542" d="M82 674q0 249 145.5 429t388.5 218q52 6 107 6t111 -6q239 -37 398 -222t159 -425q-3 -294 -148 -447l117 -121q20 -20 23 -43.5t-9.5 -41t-31 -29t-43 -8.5t-44.5 22l-110 117q-86 -69 -192.5 -107.5t-215.5 -38.5q-135 0 -253.5 48t-208 135.5t-141.5 220.5t-52 293z M231 668q0 -241 147.5 -397t358.5 -156q174 0 310 114l-115 117q-24 24 -24 50q0 12 4 24q15 39 52 46q6 1 13 1q30 0 59 -27l107 -106q98 122 98 334q0 197 -119.5 341t-308.5 175q-43 6 -87 6t-89 -6q-183 -29 -294.5 -173.5t-111.5 -342.5z" />
<glyph unicode="R" horiz-adv-x="1345" d="M156 57v1176q0 32 20.5 52t54.5 20h486q129 0 232 -35t168 -95.5t99.5 -140t34.5 -170.5q0 -160 -90 -264t-274 -135l332 -359q22 -22 26 -46.5t-9 -42t-32 -27.5q-13 -7 -30 -8q-7 0 -14 2q-25 4 -44 24l-414 449h-397v-398q0 -27 -15.5 -45t-37.5 -22.5t-43.5 -0.5 t-37 22t-15.5 44zM305 586h414q192 0 288 78q93 75 93 193v7q-2 130 -104.5 216.5t-276.5 86.5h-414v-581z" />
<glyph unicode="S" horiz-adv-x="1323" d="M45 287q-3 11 -3 20q0 27 26 47q27 19 58 20q10 0 20 -2q43 -8 51 -48q19 -60 67.5 -103.5t114.5 -64.5t129.5 -30t132.5 -9q57 0 113.5 7t117.5 25.5t107 46.5t76 75t30 106q0 120 -139 167q-80 26 -282 42l-1 1h-1h-1h-1h-1h-1h-1h-1h-1h-1h-1h-1l-1 1h-1h-1h-1h-1h-1 h-1q-80 7 -123 11t-115 16t-113 26t-92 40.5t-78 61t-46 85t-19 114.5q0 78 34.5 144t91 110.5t130.5 76t151.5 46t154.5 14.5q89 0 169 -12.5t162 -41.5t144.5 -88t93.5 -142q5 -13 5 -25q0 -22 -19 -39q-26 -23 -60 -23h-10q-40 4 -55 37q-22 55 -70.5 93.5t-113 57 t-122.5 25.5t-122 7q-45 0 -95 -7t-106 -25t-100.5 -44.5t-73.5 -69.5t-29 -96q0 -29 8 -53.5t20 -43t34.5 -34t43 -26.5t55 -19.5t61 -14t70 -10.5t73 -7.5t78.5 -6.5q214 -19 292 -36q198 -43 258 -164q31 -61 31 -146q0 -90 -39 -162.5t-100 -117.5t-142.5 -75.5 t-161 -42.5t-159.5 -12q-86 0 -173.5 16t-176 50t-155.5 99.5t-91 152.5z" />
<glyph unicode="T" horiz-adv-x="1206" d="M-24 1234q0 27 19.5 49t53.5 22h1061q46 1 66 -35q10 -18 10 -36t-10 -36q-20 -36 -66 -35h-457q0 -185 1 -556.5t1 -555.5q0 -36 -24 -56t-53 -20t-51.5 20t-22.5 56v1112h-455q-34 0 -53.5 22t-19.5 49z" />
<glyph unicode="U" horiz-adv-x="1554" d="M152 578v673q0 43 38 60q19 8 38 8q20 0 39 -9q38 -18 38 -61v-671q0 -107 38.5 -193.5t102 -140t144.5 -82.5t165.5 -29t165.5 29t144.5 82.5t102 140t38.5 193.5v671q0 47 38 67q20 10 40 9l38 -9q38 -19 38 -65v-673q0 -114 -34 -212t-92.5 -166.5t-136 -117.5 t-164 -72.5t-177.5 -23.5t-177.5 23.5t-164 72.5t-136 117.5t-92.5 166.5t-34 212z" />
<glyph unicode="V" horiz-adv-x="1400" d="M16 1221q-7 16 -7 31q0 23 17 42q26 29 65 29q3 -1 7 -1q44 -2 62 -44l526 -1049l514 1045q16 40 57 44q5 1 11 1q34 1 59 -25q19 -19 19 -45q0 -13 -5 -28l-589 -1194q-22 -41 -66 -43q-1 0 -3 -1q-42 0 -69 50z" />
<glyph unicode="W" horiz-adv-x="2396" d="M37 1225q-5 14 -5 26q0 17 10 33q17 26 45 37t58.5 1.5t42.5 -40.5l459 -1057l445 912q18 45 68 45h1q50 0 74 -43l446 -914l457 1057q16 41 59 48q8 1 16 1q33 -1 59 -25q21 -21 21 -50q0 -14 -5 -31l-537 -1207q-22 -46 -69 -48h-3q-45 0 -67 46l-449 926l-450 -926 q-19 -40 -71 -42q-3 0 -6 -1q-47 0 -67 45z" />
<glyph unicode="X" horiz-adv-x="1314" d="M36 31q-3 9 -3 19q0 28 22 59l488 557l-473 544q-17 20 -17 42q0 12 6 26q17 36 53 44q6 1 13 1q29 0 57 -25l457 -534l455 532q23 27 53 27q9 0 18 -2q42 -11 55 -45q4 -11 4 -22q0 -24 -18 -48l-475 -540l490 -560q21 -25 23 -50v-8q0 -20 -10 -34q-12 -17 -32 -26 q-11 -5 -25 -5q-9 0 -21 3q-26 7 -50 30l-467 543l-473 -543q-30 -32 -63 -32q-7 0 -15 2q-42 8 -52 45z" />
<glyph unicode="Y" horiz-adv-x="1263" d="M12 1286q23 36 64 37h2q39 0 69 -35l463 -633l469 635q15 22 38 30q13 5 26 5q9 0 17 -2q21 -6 38 -21q18 -15 18 -41q0 -21 -14 -44l-514 -691v-458q0 -36 -23.5 -56t-52.5 -20q-33 0 -54 19.5t-21 56.5v458l-519 686q-16 22 -16 42q0 17 10 32z" />
<glyph unicode="Z" horiz-adv-x="1257" d="M40 39q-6 13 -6 27q0 26 23 53l918 1050h-830q-26 0 -43.5 13.5t-22 33t-0.5 39t22 34t44 16.5h975q62 1 80 -39q6 -13 5 -26q0 -28 -25 -58l-926 -1041h874q45 0 64 -34q10 -17 10 -35q0 -17 -10 -34q-18 -35 -64 -38h-1011q-59 0 -77 39z" />
<glyph unicode="[" horiz-adv-x="524" d="M121 -127v1495q0 35 25 58.5t61 23.5h213q53 0 75 -35t0.5 -69.5t-75.5 -34.5h-154v-1383h154q39 0 60 -21.5t20.5 -47t-22 -47t-58.5 -21.5h-213q-35 0 -60.5 24t-25.5 58z" />
<glyph unicode="\" horiz-adv-x="696" d="M-33 1325q-19 43 7.5 74t68.5 26.5t59 -47.5l613 -1464q11 -27 7 -50.5t-22 -36.5t-39 -17t-43.5 8.5t-35.5 38.5h-2z" />
<glyph unicode="]" horiz-adv-x="524" d="M25 1383.5q0 24.5 18 45.5t49 21h213q34 0 60 -24.5t26 -57.5v-1497q0 -33 -26 -57.5t-60 -24.5h-213q-48 0 -66.5 34.5t1.5 69.5t65 35h148v1389h-148q-31 0 -49 21t-18 45.5z" />
<glyph unicode="^" horiz-adv-x="743" d="M62.5 1033.5q-9.5 32.5 13.5 66.5l207 258q32 39 71 39t72 -37l207 -262q28 -34 11.5 -66.5t-52 -34.5t-66.5 27l-174 221l-170 -221q-33 -36 -71.5 -29.5t-48 39z" />
<glyph unicode="_" horiz-adv-x="888" d="M-18.5 -78.5q0.5 25.5 19.5 47t52 21.5h707q31 0 49 -21.5t18.5 -47t-17 -47t-50.5 -21.5h-707q-34 0 -53 21.5t-18.5 47z" />
<glyph unicode="`" horiz-adv-x="614" d="M104 1444q21 39 61 41t71 -35l153 -193q20 -29 6 -59.5t-45.5 -36.5t-68.5 21l-166 184q-32 39 -11 78z" />
<glyph unicode="a" d="M74 545q3 159 86.5 288t228.5 185l-2 -2q87 39 202 39h17q229 -4 324 -160v78q0 33 19.5 53.5t54.5 20.5q34 0 54.5 -20.5t20.5 -53.5v-910q0 -34 -20.5 -53.5t-54.5 -19.5q-35 0 -54.5 19.5t-19.5 53.5v99q-42 -85 -139 -136t-193 -51q-171 0 -295 88q-116 79 -175 205 q-54 116 -54 253v24zM223 543v-18q0 -205 150 -330q89 -68 211 -78q145 0 242 84.5t104 234.5v162q0 146 -90.5 227.5t-235.5 87.5h-7q-109 -1 -204 -57q-98 -58 -139 -162q-28 -66 -31 -151z" />
<glyph unicode="b" horiz-adv-x="1265" d="M137 59v1237q-1 44 37 62q19 9 38 10l38 -10q38 -18 37 -62v-407q44 79 134.5 122.5t196.5 43.5q228 0 373.5 -144.5t151.5 -365.5v-20q-1 -169 -81 -303q-86 -142 -249 -210l2 2q-91 -39 -197 -39q-100 0 -193 45.5t-142 135.5v-97q0 -71 -70 -71q-35 0 -55.5 18.5 t-20.5 52.5zM287 436q0 -146 99.5 -232.5t244.5 -86.5q125 10 211 78q151 126 151 340v8q-3 78 -30 151q-43 103 -140.5 161t-210.5 58q-141 -6 -233 -93.5t-92 -221.5v-162z" />
<glyph unicode="c" horiz-adv-x="1101" d="M72 559q12 228 161 369t381 141q113 0 204 -41t173 -133q17 -19 17 -41.5t-13.5 -38t-32 -25t-41 -5t-38.5 23.5q-108 125 -285 125q-165 0 -270 -119.5t-105 -296.5q0 -163 88 -270q53 -65 131.5 -100t163.5 -35q89 0 168.5 33t130.5 102q20 27 51 27q6 1 14 -1 q42 -8 56 -42q4 -11 4 -22q0 -24 -20 -52q-73 -90 -180.5 -136.5t-225.5 -46.5t-227 47.5t-184 135.5q-63 80 -95 184q-26 88 -27 181q0 18 1 36z" />
<glyph unicode="d" horiz-adv-x="1263" d="M78 545q6 221 151.5 365.5t372.5 144.5q106 0 197 -43.5t135 -122.5v407q0 44 37 62q18 9 37 10q20 0 38 -10q38 -18 37 -62v-1237q0 -34 -20 -52.5t-55 -18.5q-70 0 -70 71v97q-49 -90 -142.5 -135.5t-193.5 -45.5q-105 0 -196 39l2 -2q-164 68 -250 210 q-81 134 -80 303v20zM227 543v-8q0 -213 152 -340q86 -68 211 -78q145 0 244.5 86.5t99.5 232.5v162q0 134 -92.5 221.5t-233.5 93.5q-113 0 -210 -58t-140 -161q-28 -76 -31 -151z" />
<glyph unicode="e" horiz-adv-x="1267" d="M82 500v24q0 75 20 149q22 86 67.5 157.5t119 126.5t166.5 81q72 22 149 22t158 -22h2q174 -48 275 -183.5t104 -330.5v2v-9q0 -33 -20 -57q-23 -28 -81 -28h-809q21 -131 123.5 -219t251.5 -88q160 0 273 86q26 24 56.5 23.5t50 -17.5t19.5 -47t-28 -59 q-132 -123 -354 -123h-11q-124 0 -234.5 47t-180.5 135q-54 72 -83.5 158t-33.5 172zM227 557h772q-11 131 -85.5 224t-194.5 124h2q-54 14 -107 14q-57 0 -114 -16q-121 -32 -192.5 -125.5t-80.5 -220.5z" />
<glyph unicode="f" horiz-adv-x="716" d="M21 938q-1 7 -1 15q0 11 2 21q4 18 19.5 31t38.5 13h108v45q0 94 52 166t128 103q59 24 126 24q19 0 38 -2q89 -8 158 -62q20 -17 24 -39q2 -7 2 -13q0 -14 -7 -26q-10 -18 -26 -30t-38 -11.5t-39 15.5q-31 29 -77 35q-13 2 -25 2q-33 0 -64 -11q-42 -16 -72 -56.5 t-30 -96.5v-43h197q26 0 41 -19.5t15 -43t-15 -43t-41 -19.5h-197v-836q0 -43 -38 -60q-18 -9 -37 -9l-37 9q-38 17 -38 60v836h-110q-23 0 -38.5 13t-18.5 32z" />
<glyph unicode="g" horiz-adv-x="1265" d="M80 489v20q0 171 80 304q84 141 248 209q88 35 192 35q102 0 195 -40t141 -120v78q0 34 19.5 54t54.5 20q34 0 54.5 -20t20.5 -54v-926q0 -144 -68.5 -247.5t-181 -153t-255.5 -49.5q-121 0 -216 32.5t-176 108.5q-23 23 -27.5 48.5t7.5 43.5t31.5 29t44.5 7.5t45 -22.5 q76 -58 140 -80t151 -22q72 0 135 18.5t114 54.5t81 96t30 136v111q-51 -91 -139 -134.5t-189 -45.5h-17q-112 0 -204 38q-141 58 -224.5 186t-86.5 285zM229 492q3 -86 31 -152q41 -104 139 -162q95 -57 204 -57h7h-2q139 6 233.5 95.5t94.5 219.5v162q0 205 -174 281 q-74 35 -157 35q-19 0 -38 -2q-105 -9 -188 -72h2q-152 -124 -152 -330v-18z" />
<glyph unicode="h" horiz-adv-x="1320" d="M137 61v1227q0 31 23.5 48.5t52.5 17.5t52.5 -18t23.5 -48v-430q53 102 158 152.5t229 50.5q122 0 226 -52t171.5 -158.5t67.5 -248.5v-541q0 -34 -19.5 -53.5t-54.5 -19.5q-34 0 -55 20t-21 53v541q0 138 -94.5 229t-222.5 91q-155 0 -270 -99t-115 -252v-510 q0 -34 -19.5 -53.5t-54.5 -19.5t-56.5 19.5t-21.5 53.5z" />
<glyph unicode="i" horiz-adv-x="413" d="M119 1196v92q1 44 39 62q19 9 38 9.5t38 -9.5q38 -18 38 -62v-92q0 -33 -24 -51.5t-52.5 -19t-52.5 18.5t-24 52zM121 53v922q0 25 15.5 42.5t37.5 21.5q12 2 23 2q11 1 21 -1q22 -4 37 -21t15 -42v-924q0 -32 -24 -50q-23 -18 -49 -18l-1 1q-28 0 -51.5 18t-23.5 49z " />
<glyph unicode="j" horiz-adv-x="428" d="M-27 -274q10 28 41 45q73 41 99 95t26 134v61v916q0 30 21 50t55 20q30 0 52 -20.5t22 -49.5v-903q0 -36 1 -70v-7q0 -31 -4 -62q-5 -34 -12.5 -66t-23.5 -63t-38.5 -59.5t-57.5 -55.5t-80 -51q-19 -7 -35 -7q-15 0 -27 6q-24 13 -36 35q-7 13 -7 27q0 12 4 25zM137 1196 v92q0 44 39 62q19 10 38 10l38 -10q39 -18 39 -62v-92q0 -33 -24 -51.5t-53 -18.5l-1 -1q-29 0 -52 19q-24 19 -24 52z" />
<glyph unicode="k" horiz-adv-x="1009" d="M137 61v1225q-1 40 37 56q19 8 38 8l38 -8q38 -16 37 -56v-739l141 139l369 344q28 25 59 25q12 0 22 -3q42 -12 50 -48q2 -7 2 -15q0 -30 -27 -61l-383 -355l422 -464q21 -25 21 -51q0 -14 -6 -28q-18 -40 -58 -42h-6q-36 0 -68 32l-417 469l-121 -108v-320 q0 -33 -23.5 -52t-51.5 -19.5t-51.5 18.5t-23.5 53z" />
<glyph unicode="l" horiz-adv-x="413" d="M121 61v1229q0 30 21.5 50t54.5 20q31 0 52 -20.5t21 -49.5v-1229q0 -29 -21 -49t-52 -20q-33 0 -54.5 19.5t-21.5 49.5z" />
<glyph unicode="m" horiz-adv-x="2187" d="M156 59v916q0 29 21 50.5t52 21.5q33 0 52.5 -21t19.5 -51v-141q59 107 160.5 160t224.5 53q141 0 256.5 -70t159.5 -201q53 131 172 201t262 70q90 0 174 -29.5t151 -84t107.5 -139t40.5 -186.5v-549q0 -33 -21 -52t-55 -19q-35 0 -54 18.5t-19 52.5v543q-3 131 -95 217 t-223 86q-164 0 -274.5 -110.5t-110.5 -284.5v-451q0 -33 -21 -52t-55 -19t-54.5 19t-20.5 52v508q0 91 -36.5 168.5t-105.5 120.5q-75 47 -176 47q-156 0 -269.5 -108t-113.5 -275v-461q0 -33 -23.5 -52t-51 -18.5t-51 19t-23.5 51.5z" />
<glyph unicode="n" horiz-adv-x="1320" d="M137 59v918q0 27 15 45.5t37 22.5t44 0t37 -23t15 -47v-127q53 107 158 160t233 53q122 0 226 -52t171.5 -158.5t67.5 -248.5v-543q0 -34 -19.5 -52.5t-54.5 -18.5q-34 0 -55 19t-21 52v543q0 138 -94.5 229t-222.5 91q-153 0 -269 -112t-116 -275v-476 q0 -34 -19.5 -52.5t-54.5 -18.5q-36 0 -57 19t-21 52z" />
<glyph unicode="o" horiz-adv-x="1247" d="M74 559q15 175 114.5 305t264.5 176q67 19 155 19q80 0 152 -19q165 -47 266 -177t115 -304q1 -19 1 -37q0 -206 -124 -356q-74 -90 -180.5 -137t-229.5 -47q-124 0 -229.5 47t-179.5 137q-126 149 -126 364q0 14 1 29zM225 516q0 -154 90 -260q54 -64 131 -99.5 t162 -35.5q83 0 162 36.5t133 98.5q42 52 66 120.5t24 135.5q0 143 -73 251.5t-201 141.5q-62 15 -113 15q-50 0 -108 -15q-127 -33 -200 -140.5t-73 -248.5z" />
<glyph unicode="p" horiz-adv-x="1269" d="M137 -299v1272q0 34 20.5 52.5t55.5 18.5q70 0 70 -71v-96q49 90 141.5 135t193.5 45q106 0 197 -39l-2 2q164 -68 249 -210q81 -133 81 -303v-20q-6 -221 -151.5 -365.5t-373.5 -144.5q-107 0 -197 42.5t-134 121.5v-440q0 -44 -37 -63q-19 -9 -38 -9l-38 9 q-37 19 -37 63zM287 434q0 -134 92 -221.5t233 -93.5q113 0 210.5 58t140.5 161q27 73 30 151v8q0 215 -151 341q-84 67 -211 77q-145 0 -244.5 -86.5t-99.5 -232.5v-162z" />
<glyph unicode="q" horiz-adv-x="1271" d="M82 487v20q0 170 80 303q86 142 250 210l-2 -2q91 39 196 39q101 0 194 -45t142 -135v96q0 71 70 71q35 0 55 -18.5t20 -52.5v-1272q0 -44 -37 -63q-19 -9 -37.5 -9t-37.5 9q-37 19 -37 63v440q-44 -79 -134.5 -121.5t-197.5 -42.5q-227 0 -372.5 144.5t-151.5 365.5z M231 489q3 -75 31 -151q43 -103 140 -161t210 -58q141 6 233.5 93.5t92.5 221.5v162q0 146 -99.5 232.5t-244.5 86.5q-127 -10 -211 -77q-152 -127 -152 -341v-8z" />
<glyph unicode="r" horiz-adv-x="690" d="M131 68v907q1 43 37 62q19 10 37 10q17 -1 35 -9q36 -18 36 -63v-103q84 175 306 175q36 0 56.5 -18.5t20.5 -53.5q0 -33 -20.5 -51.5t-56.5 -18.5q-102 0 -171 -51.5t-99.5 -134t-30.5 -189.5v-462q0 -31 -22 -51.5t-52 -20.5q-34 0 -55 20t-21 52z" />
<glyph unicode="s" horiz-adv-x="1095" d="M57 231q-3 11 -3 21q0 27 23.5 47t52.5 20q12 0 22 -3q42 -10 49 -58q14 -65 111 -102t218 -37q42 0 92 10t102.5 30t87 58t34.5 88q0 31 -10.5 54t-34.5 38.5t-47.5 25t-64.5 16t-70.5 9t-79.5 6.5q-10 1 -15 1q-186 17 -261 40q-160 48 -190 179q-7 32 -7 71 q0 78 41.5 140.5t108 99t143 55.5t153.5 19q366 0 449 -211q4 -14 4 -26q0 -26 -20 -46q-26 -24 -59 -24q-6 0 -12 1q-40 5 -53 42q-48 127 -309 127q-65 0 -130 -17t-116 -60t-51 -102q0 -29 8 -51t32 -36.5t39.5 -23t59.5 -14.5t61.5 -7.5t73.5 -5.5q27 -2 41 -3 q191 -17 271 -43q160 -51 188 -188q6 -31 6 -66q0 -74 -32.5 -132t-82 -92.5t-114 -57.5t-122.5 -31t-114 -8q-73 0 -141.5 10.5t-141.5 35.5t-124 76.5t-66 124.5z" />
<glyph unicode="t" horiz-adv-x="788" d="M31 1022q19 20 51 20h135v238q0 34 23 54q22 19 50 20h1q28 0 51 -20t23 -54v-238h223q43 0 61 -32q9 -16 9 -32t-9 -32q-18 -32 -61 -33h-223v-553q0 -51 5.5 -88t20.5 -74t48 -57t83 -20q59 0 96 22q22 10 42 10q18 -1 33 -9q31 -17 31 -56v-2q-1 -42 -44 -66 q-60 -34 -158 -34q-305 0 -305 374v553h-135q-34 0 -52 20q-18 19 -19 43q0 25 20 46z" />
<glyph unicode="u" horiz-adv-x="1314" d="M133 438v543q0 34 19.5 53t54.5 19q34 0 55 -19.5t21 -52.5v-543q0 -137 94.5 -228t222.5 -91q153 0 269 112t116 275v475q0 34 19.5 53t54.5 19q36 0 57 -19.5t21 -52.5v-918q0 -27 -15 -45.5t-37 -22.5t-44 0.5t-37 23.5t-15 47v129q-53 -107 -158.5 -161t-232.5 -54 q-90 0 -173 30.5t-148.5 87t-104.5 145t-39 195.5z" />
<glyph unicode="v" horiz-adv-x="1136" d="M10 958q-5 14 -5 27q1 24 19 43q26 27 63 27q3 -1 6 -1q41 -2 59 -40q62 -125 127.5 -255t144.5 -287t129 -257l405 803q16 36 56 40h8q36 0 60 -24q17 -17 16 -39q0 -13 -6 -28l-474 -940q-22 -43 -63 -47h-6q-38 0 -66 45z" />
<glyph unicode="w" horiz-adv-x="1861" d="M45 975q-5 14 -5 26q0 24 20 42q27 24 62 24h8q42 -3 56 -35l351 -801l323 672q22 51 70 51t71 -51l328 -674l342 795q13 36 55 41q6 1 13 1q33 0 57 -23q18 -17 18 -39q0 -13 -6 -29l-407 -952q-18 -40 -66 -40h-2q-50 1 -69 40l-328 688l-338 -688q-20 -39 -69 -42h-6 q-44 0 -64 42z" />
<glyph unicode="x" horiz-adv-x="1064" d="M20 62q2 26 23 47l356 417l-350 418q-18 25 -18.5 48.5t15 39t35.5 23t43.5 2t39.5 -24.5l336 -414l362 414q21 29 54 29q6 1 12 -1q42 -6 59 -39q8 -14 8 -30q0 -19 -12 -39l-383 -426l387 -426q19 -22 19 -45q0 -13 -6 -27q-16 -38 -54 -44q-6 -1 -12 -1q-31 0 -60 27 l-372 428l-350 -426q-21 -22 -46 -28q-8 -2 -16 -2q-14 0 -28 7q-20 11 -32 29q-10 15 -11 35q1 5 1 9z" />
<glyph unicode="y" horiz-adv-x="1144" d="M14 1000q6 23 25.5 37t40.5 19q8 2 15 2q14 0 29 -7q22 -11 34 -37l395 -791l391 793q13 28 42 36q13 5 26 5q14 0 28 -5q26 -10 40 -36q8 -13 8 -29q0 -12 -5 -26l-657 -1307q-23 -45 -65 -51q-7 -1 -13 -1q-33 0 -54 26q-15 18 -15 40q0 17 8 37l180 367l-449 882 q-6 15 -6 29q0 9 2 17z" />
<glyph unicode="z" horiz-adv-x="1083" d="M40 74q3 30 28 53l692 774q-108 0 -307.5 -1t-307.5 -1q-34 0 -53 22.5t-18.5 49t19.5 49t52 22.5h760q55 0 76 -46q8 -16 8 -32q0 -28 -24 -53v2l-703 -776l658 2q46 -1 67 -35q11 -18 11 -36q0 -16 -8 -33q-18 -35 -68 -35h-801q-40 0 -62 22q-19 19 -19 45v7z" />
<glyph unicode="{" horiz-adv-x="534" d="M37 598q0 27 15 48t42 22q42 4 58 20q15 15 22.5 48t8.5 54.5t1 63.5v307q0 56 4.5 96t20 80t42.5 64.5t73.5 39.5t111.5 15q32 0 50.5 -21.5t19 -47t-18 -47t-51.5 -21.5q-64 0 -84 -33.5t-20 -126.5v-299v-31v-35t-1.5 -32t-4.5 -35t-7.5 -29.5t-12 -31.5t-18 -25 t-25 -25t-32.5 -18q18 -8 32.5 -17.5t25 -25t18 -25.5t12 -32t7.5 -30.5t4.5 -35.5t1.5 -32v-35v-31v-287q0 -93 20 -126.5t84 -33.5q33 0 51.5 -21.5t18 -47t-19 -47t-50.5 -21.5q-65 0 -111.5 15t-73.5 39.5t-42.5 64.5t-20 80t-4.5 96v295q0 42 -1 63.5t-8.5 54.5 t-22.5 48q-16 16 -58 20q-28 1 -42.5 22t-14.5 50z" />
<glyph unicode="|" horiz-adv-x="315" d="M74 -125v1473q0 31 21.5 51t51.5 20q35 0 55.5 -19.5t20.5 -51.5v-1473q0 -33 -20 -51.5t-56 -18.5q-31 0 -52 19t-21 51z" />
<glyph unicode="}" horiz-adv-x="552" d="M20.5 -181.5q-0.5 25.5 18 47t51.5 21.5q64 0 84.5 34t20.5 126v287v31v35t1 32.5t4 35t7.5 31t12 31.5t18 25.5t25 24.5t32.5 18q-18 8 -32.5 18t-25 24.5t-18 25.5t-12 31t-7.5 30.5t-4 34.5t-1 32v34.5v31.5v299q0 92 -20.5 126t-84.5 34q-33 0 -51.5 21.5t-18 47 t19 47t50.5 21.5q65 0 111.5 -15t73.5 -39.5t42.5 -64.5t20 -80t4.5 -96v-307q0 -133 33 -166q16 -16 57 -20q27 -1 42 -22t15 -48q0 -29 -14.5 -50t-42.5 -22q-41 -4 -57 -20q-33 -33 -33 -166v-295q0 -56 -4.5 -96t-20 -80t-42.5 -64.5t-73.5 -39.5t-111.5 -15 q-32 0 -50.5 21.5t-19 47z" />
<glyph unicode="~" horiz-adv-x="1056" d="M27 502q21 118 79 167.5t152 49.5q70 0 144.5 -26.5t158.5 -67t139 -56.5q61 -13 98.5 8t51.5 85q6 43 43.5 56t70 -10.5t25.5 -70.5q-15 -104 -76 -158.5t-155 -54.5q-58 0 -128 25t-124.5 55t-122.5 55t-123 25q-35 0 -64 -25.5t-36 -79.5q-6 -31 -29.5 -45t-48.5 -9.5 t-42.5 26t-12.5 51.5z" />
<glyph unicode="&#xa1;" horiz-adv-x="307" d="M61 905v70q0 33 25 51t55 16.5t55 -19.5t25 -48v-70q0 -32 -25 -50.5t-55 -19t-55 18t-25 51.5zM68 -221v903q0 33 24 52t52.5 18.5t52.5 -19t24 -51.5v-903q0 -35 -24 -54.5t-52.5 -19t-52.5 20t-24 53.5z" />
<glyph unicode="&#xa2;" horiz-adv-x="1044" d="M31 557q3 176 103.5 304t266.5 173q18 6 70 15v106q0 28 22 45t48.5 17.5t48.5 -16t22 -46.5v-106q193 -29 314 -170q29 -34 11.5 -74.5t-55 -46t-71.5 32.5v-3q-78 91 -199 113v-770q73 10 128.5 40t103.5 97q25 35 67.5 25.5t56.5 -46t-16 -79.5l2 2 q-61 -77 -151.5 -123t-190.5 -57v-115q0 -46 -35 -63t-70.5 2t-35.5 61v119q-212 38 -328.5 188.5t-111.5 374.5zM180 510q0 -134 79.5 -238t211.5 -137v766l-29 -4h2q-264 -68 -264 -387z" />
<glyph unicode="&#xa5;" horiz-adv-x="1257" d="M-2 1278q9 26 30 42t50.5 10.5t48.5 -34.5l479 -645l479 647q13 19 35 25t41 -1.5t35.5 -22t19.5 -34.5t-8 -40l-450 -604h168q35 0 54 -20t18.5 -43.5t-20 -43.5t-52.5 -20h-248v-107h248q42 0 60 -31.5t1 -62.5t-61 -31h-248v-196q0 -47 -36 -65.5t-71.5 1t-33.5 64.5 v196h-254q-44 5 -60.5 36t2 60t62.5 29h250v107h-254q-44 5 -60.5 36.5t2 61t62.5 29.5h170l-447 598q-21 33 -12 59z" />
<glyph unicode="&#xa8;" horiz-adv-x="774" d="M80 1364q0 37 27.5 61.5t64.5 24.5q33 0 61.5 -25t28.5 -61q0 -44 -27.5 -67t-62.5 -23q-37 0 -64.5 25.5t-27.5 64.5zM481 1364q0 37 27.5 61.5t64.5 24.5q36 0 64.5 -24.5t28.5 -61.5q0 -44 -27.5 -67t-65.5 -23q-37 0 -64.5 25.5t-27.5 64.5z" />
<glyph unicode="&#xa9;" horiz-adv-x="1021" d="M20 643q0 130 64.5 240t175 173.5t240.5 63.5q199 0 339 -139.5t140 -337.5q0 -197 -140 -336t-339 -139q-198 0 -339 139.5t-141 335.5zM166 643q0 -140 98 -239t236 -99t236 99t98 239q0 141 -98 239.5t-236 98.5t-236 -98.5t-98 -239.5zM244 643q0 50 10 84 q26 76 86 127h-2q26 23 72 43q51 14 96 14q117 0 190 -82l-2 2q19 -25 23 -43q3 -59 -72 -79q-29 -6 -59 24v2q-33 33 -80 33q-35 0 -74 -25l2 2q-41 -35 -41 -104q0 -48 31 -84q30 -37 84 -37q64 0 92 43q14 16 57 29q29 3 52.5 -12t27.5 -48q4 -35 -14 -53 q-36 -49 -92.5 -75.5t-118.5 -26.5q-54 0 -108.5 23t-92.5 63q-67 79 -67 180z" />
<glyph unicode="&#xab;" horiz-adv-x="866" d="M1 535q2 32 34 61v-2l340 330h-2q20 20 51 20q29 0 51.5 -21.5t22.5 -50.5q0 -23 -25 -51l-299 -289l299 -288q25 -28 25 -51q0 -30 -20 -51t-54 -21q-37 0 -57 26l6 -4l-342 330v-2q-32 32 -30 64zM367 471q-67 61 4 125v-2l340 330h-2q23 20 51 20q31 0 52.5 -21.5 t21.5 -50.5q0 -26 -25 -51l-297 -289l297 -288q25 -25 25 -51q0 -29 -21.5 -50.5t-52.5 -21.5q-35 0 -58 26l7 -4l-342 330v-2z" />
<glyph unicode="&#xad;" horiz-adv-x="747" d="M75 573.5q-19 34.5 1.5 68.5t66.5 34h414q36 0 57 -21.5t21.5 -47t-20.5 -47t-58 -21.5h-414q-49 0 -68 34.5z" />
<glyph unicode="&#xae;" horiz-adv-x="980" d="M8 633q0 190 137.5 326.5t329.5 136.5q129 0 237 -62.5t170 -169t62 -231.5q0 -126 -62 -233t-170 -169.5t-237 -62.5q-126 0 -233.5 62.5t-170.5 169.5t-63 233zM147 633q0 -137 97 -234.5t231 -97.5q136 0 232 97t96 235q0 137 -96 234.5t-232 97.5q-134 0 -231 -98 t-97 -234zM317 446v365q-2 32 18.5 52t55.5 20q28 0 49.5 -19.5t20.5 -62.5q47 86 141 86q31 0 53.5 -20t22.5 -52q0 -29 -21 -49.5t-55 -20.5q-61 0 -97 -41t-36 -106v-152q0 -32 -21.5 -51.5t-56.5 -19.5t-54.5 19t-19.5 52z" />
<glyph unicode="&#xb0;" horiz-adv-x="413" d="M12 1180q0 72 53 122t128 50q74 0 126 -50t52 -122q0 -74 -52 -125t-126 -51q-75 0 -128 50.5t-53 125.5zM125 1182q0 -29 21 -51.5t49 -22.5q26 0 46.5 20t20.5 52q0 29 -20.5 48t-46.5 19q-28 0 -49 -19.5t-21 -45.5z" />
<glyph unicode="&#xb1;" horiz-adv-x="970" d="M57.5 646.5q0.5 24.5 18.5 45.5t49 21h268v272q0 35 23 54t51 18t51 -20t23 -52v-272h268q40 0 57 -33.5t0.5 -66.5t-57.5 -33h-268v-281q0 -26 -14.5 -44t-36 -22t-43 0t-37 22t-17.5 44v281h-268q-32 0 -50 21t-17.5 45.5zM62.5 32.5q-18.5 32.5 0 66t62.5 36.5h684 q43 0 60.5 -32.5t0 -66t-60.5 -36.5h-684q-44 0 -62.5 32.5z" />
<glyph unicode="&#xb4;" horiz-adv-x="473" d="M96 1130.5q-6 21.5 10 45.5l150 182q33 48 83 35q39 -9 51 -44q13 -34 -15 -65l-166 -180q-24 -23 -50.5 -24.5t-41.5 14t-21 37z" />
<glyph unicode="&#xb6;" horiz-adv-x="985" d="M23 993q0 126 93 219t220 93h520q34 0 55 -20t21 -54q0 -33 -21 -51.5t-55 -18.5h-55v-1300q0 -29 -20 -49.5t-54 -20.5t-56 20.5t-22 49.5v1300h-256v-1300q0 -29 -20 -49.5t-54 -20.5q-33 0 -54 20.5t-21 49.5v835q-98 28 -159.5 110.5t-61.5 186.5z" />
<glyph unicode="&#xb7;" horiz-adv-x="249" d="M16 612q0 41 29 69t72 28q42 0 69 -27.5t27 -69.5q0 -41 -26.5 -66.5t-69.5 -25.5t-72 25.5t-29 66.5z" />
<glyph unicode="&#xb8;" horiz-adv-x="622" d="M110 -174.5q2 21.5 15.5 35t30.5 19t36.5 -3t32.5 -30.5q21 -35 69 -49t88 1.5t40 56.5q0 31 -27.5 48.5t-60.5 17t-60 -8.5l-49 57l47 152l148 -2l-39 -107q86 7 132 -40t46 -113q0 -62 -36.5 -107.5t-92 -62.5t-115.5 -16t-114.5 29.5t-81.5 76.5q-11 25 -9 46.5z" />
<glyph unicode="&#xbb;" horiz-adv-x="862" d="M27 188q0 28 24 52l299 288l-307 297q-16 26 -16 45q0 28 21.5 49t51.5 21q31 0 54 -20h-2l340 -330v2q67 -61 2 -123l-340 -328h2q-24 -24 -56 -24q-31 0 -52 21t-21 50zM340 188q0 27 22 52l302 288l-310 297q-14 28 -14 45q0 28 21.5 49t50.5 21q33 0 53 -20h-2 l340 -330v2q68 -59 4 -123l-342 -328h2q-21 -24 -55 -24q-29 0 -50.5 21t-21.5 50z" />
<glyph unicode="&#xbf;" horiz-adv-x="1234" d="M35 119q1 46 12.5 85.5t26.5 68.5t44 57t50 44.5t62 38t62.5 31t67.5 29.5q50 20 78.5 34t62 36.5t49 50.5t15.5 63v50q0 30 23 47.5t51 18t51 -17t23 -48.5v-52q0 -37 -9.5 -69t-22 -56t-37.5 -47.5t-44.5 -38t-55 -33t-56 -27.5t-60.5 -26q-45 -19 -71.5 -31 t-63.5 -34.5t-57 -45.5t-35.5 -57t-16.5 -75q-1 -60 26 -109.5t71 -82.5t100.5 -56t113.5 -33t111 -10q61 0 118 9t115.5 29.5t102.5 61.5t62 99q11 34 49.5 38t67.5 -22t16 -64q-22 -67 -66 -118t-97 -82t-119.5 -50.5t-126.5 -26.5t-124 -7q-77 0 -156 15.5t-154.5 50 t-133.5 83t-92.5 121t-32.5 158.5zM553 909v54q0 33 26.5 51t58.5 16.5t58.5 -19.5t26.5 -48v-54q0 -32 -26.5 -50.5t-58.5 -19t-58.5 18t-26.5 51.5z" />
<glyph unicode="&#xc0;" horiz-adv-x="1427" d="M4 80l619 1218q17 39 67 39q46 0 66 -39l616 -1212q29 -48 -12 -80q-35 -27 -79 -16q-32 8 -46 37l-160 317h-770l-166 -324q-18 -36 -58.5 -37t-67 28.5t-9.5 68.5zM367 473h645l-322 645zM462 1654q26 32 70 29q35 -2 56 -32l153 -174q20 -27 6 -55.5t-45.5 -34 t-68.5 19.5l-166 168q-37 41 -5 79z" />
<glyph unicode="&#xc1;" horiz-adv-x="1427" d="M4 80q-17 -39 9.5 -68.5t67 -28.5t58.5 37l166 324h770l160 -317q21 -43 74 -40q46 3 67 36q17 28 -4 63l-616 1212q-20 39 -66 39q-50 0 -67 -39zM367 473l323 645l322 -645h-645zM640 1430q-10 26 5 53l154 166q35 45 88 32q40 -11 52 -43q10 -30 -17 -57l-170 -162 q-33 -28 -67.5 -21.5t-44.5 32.5z" />
<glyph unicode="&#xc2;" horiz-adv-x="1427" d="M4 80q-17 -39 9.5 -68.5t67 -28.5t58.5 37l166 324h770l160 -317q21 -43 74 -40q46 3 67 36q17 28 -4 63l-616 1212q-20 39 -66 39q-50 0 -67 -39zM367 473l323 645l322 -645h-645zM441.5 1409.5q3.5 19.5 21.5 36.5l162 135q61 47 116 0l164 -135q40 -34 15 -69 q-21 -30 -62 -27q-24 1 -43 16l-131 104l-137 -106q-18 -14 -39 -16t-36 6.5t-24.5 22t-6 33z" />
<glyph unicode="&#xc3;" horiz-adv-x="1427" d="M4 80q-17 -39 9.5 -68.5t67 -28.5t58.5 37l166 324h770l160 -317q21 -43 74 -40q46 3 67 36q17 28 -4 63l-616 1212q-20 39 -66 39q-50 0 -67 -39zM367 473l323 645l322 -645h-645zM411.5 1445.5q-14.5 28.5 6.5 70.5q55 88 164 88q34 0 71.5 -15t65 -32t54 -30t48.5 -8 t39 33q23 48 70 40q38 -7 52 -39q11 -26 -5 -52q-41 -83 -123 -99t-166 38q-127 83 -170 2q-20 -30 -56 -27.5t-50.5 31z" />
<glyph unicode="&#xc4;" horiz-adv-x="1427" d="M4 80q-17 -39 9.5 -68.5t67 -28.5t58.5 37l166 324h770l160 -317q21 -43 74 -40q46 3 67 36q17 28 -4 63l-616 1212q-20 39 -66 39q-50 0 -67 -39zM367 473l323 645l322 -645h-645zM397 1483q0 37 27.5 61.5t64.5 24.5q33 0 62 -25t29 -61q0 -44 -28 -67t-63 -23 q-37 0 -64.5 25.5t-27.5 64.5zM799 1483q0 37 27.5 61.5t64.5 24.5q35 0 63.5 -24.5t28.5 -61.5q0 -44 -27.5 -67t-64.5 -23t-64.5 25.5t-27.5 64.5z" />
<glyph unicode="&#xc5;" horiz-adv-x="1427" d="M4 80q-17 -39 9.5 -68.5t67 -28.5t58.5 37l166 324h770l160 -317q21 -43 74 -40q46 3 67 36q17 28 -4 63l-616 1212q-20 39 -66 39q-50 0 -67 -39zM367 473l323 645l322 -645h-645zM506 1526q0 66 53.5 111.5t130.5 45.5q75 0 128.5 -45.5t53.5 -111.5q0 -68 -53 -114 t-129 -46q-77 0 -130.5 46t-53.5 114zM625 1526q0 -24 20 -43t45 -19q24 0 43 19t19 43t-19 40.5t-43 16.5q-26 0 -45.5 -16.5t-19.5 -40.5z" />
<glyph unicode="&#xc6;" horiz-adv-x="2043" d="M-20.5 34.5q-0.5 23.5 14.5 47.5l948 1188q20 33 64 33h45h804q27 0 44 -14t20 -34t-2 -40t-22.5 -34t-41.5 -14h-749v-454h713q31 0 50 -21t20.5 -46.5t-17 -46.5t-53.5 -21h-713v-439h749q31 0 49 -21.5t18 -48t-18 -48t-49 -21.5h-802q-41 0 -68 26.5t-27 63.5v262 h-565l-278 -350q-17 -22 -41 -29.5t-43 0t-34 23t-15.5 39zM492 479h464v598z" />
<glyph unicode="&#xc7;" horiz-adv-x="1366" d="M80 670q0 249 158 431.5t397 219.5q373 51 610 -197q17 -20 18 -42t-12.5 -38t-32 -26t-41 -6.5t-38.5 20.5q-98 103 -215.5 135t-266.5 15q-195 -30 -312.5 -163.5t-117.5 -350.5q0 -114 42 -216.5t113 -175t167 -115t201 -42.5q119 0 237 59q103 54 168 137 q13 20 35.5 25.5t42 -2.5t36 -23t18 -37.5t-12.5 -44.5q-80 -113 -221 -182q-106 -50 -217 -65l-27 -74q83 7 127.5 -36.5t44.5 -104.5q0 -76 -54 -123.5t-125 -56t-143.5 16.5t-105.5 81q-10 23 -8 44t15.5 34t30 19t35.5 -1t31 -27q20 -32 66.5 -45t85.5 1.5t39 52.5 q0 28 -26.5 44.5t-58.5 16t-58 -7.5l-48 53l35 107q-123 10 -234.5 65.5t-195 144.5t-133 214t-49.5 266z" />
<glyph unicode="&#xc8;" horiz-adv-x="1308" d="M156 90v1124q0 36 26 62.5t68 26.5h864q25 0 42 -13.5t20.5 -33t-1 -39t-21.5 -33t-42 -13.5h-809v-460h770q39 0 55.5 -32.5t1 -65.5t-56.5 -33h-770v-445h809q41 0 60 -33.5t2.5 -67.5t-62.5 -34h-862q-42 0 -68 26t-26 64zM510 1674q28 32 73 28q35 -3 56 -31 l156 -170q25 -31 -1 -61q-27 -32 -71 -22q-21 4 -39 18l-168 161q-38 40 -6 77z" />
<glyph unicode="&#xc9;" horiz-adv-x="1308" d="M156 90q0 -38 26 -64t68 -26h862q35 0 53 21t16.5 46.5t-20 46.5t-49.5 21h-809v445h770q41 0 56.5 33t-1 65.5t-55.5 32.5h-770v460h809q25 0 42 13.5t21.5 33t1 39t-20.5 33t-42 13.5h-864q-42 0 -68 -26.5t-26 -62.5v-1124zM610 1438q-10 26 6 53l158 166q37 45 91 32 q41 -11 52 -43q10 -30 -18 -57l-174 -162q-34 -28 -69.5 -21.5t-45.5 32.5z" />
<glyph unicode="&#xca;" horiz-adv-x="1308" d="M156 90q0 -38 26 -64t68 -26h862q35 0 53 21t16.5 46.5t-20 46.5t-49.5 21h-809v445h770q41 0 56.5 33t-1 65.5t-55.5 32.5h-770v460h809q25 0 42 13.5t21.5 33t1 39t-20.5 33t-42 13.5h-864q-42 0 -68 -26.5t-26 -62.5v-1124zM462.5 1439q-6.5 27 20.5 58l162 135 q61 44 117 0l164 -135q39 -32 16 -66q-20 -30 -60 -29q-26 1 -46 17l-131 103l-138 -105q-30 -23 -64 -14t-40.5 36z" />
<glyph unicode="&#xcb;" horiz-adv-x="1308" d="M156 90q0 -38 26 -64t68 -26h862q35 0 53 21t16.5 46.5t-20 46.5t-49.5 21h-809v445h770q41 0 56.5 33t-1 65.5t-55.5 32.5h-770v460h809q25 0 42 13.5t21.5 33t1 39t-20.5 33t-42 13.5h-864q-42 0 -68 -26.5t-26 -62.5v-1124zM412 1493q0 37 27.5 61.5t64.5 24.5 q33 0 61.5 -25t28.5 -61q0 -44 -27.5 -67t-62.5 -23q-37 0 -64.5 25.5t-27.5 64.5zM813 1493q0 37 27.5 61.5t64.5 24.5q35 0 63.5 -24.5t28.5 -61.5q0 -44 -27.5 -67t-64.5 -23t-64.5 25.5t-27.5 64.5z" />
<glyph unicode="&#xcc;" horiz-adv-x="450" d="M-24 1676q27 33 71 30q37 -2 59 -33l158 -178q21 -27 6 -56t-47.5 -35t-70.5 19l-170 172q-38 42 -6 81zM141 51v1225q0 48 38.5 67.5t77 -0.5t38.5 -67v-1225q0 -33 -24 -52.5t-53 -20t-53 18.5t-24 54z" />
<glyph unicode="&#xcd;" horiz-adv-x="450" d="M141 51v1225q0 48 38.5 67.5t77 -0.5t38.5 -67v-1225q0 -33 -24 -52.5t-53 -20t-53 18.5t-24 54zM150 1439.5q-9 26.5 6 53.5l151 168q33 45 84 32q40 -10 51 -43q10 -30 -16 -57l-166 -166q-33 -28 -67 -21t-43 33.5z" />
<glyph unicode="&#xce;" horiz-adv-x="450" d="M-3 1411q-40 37 5 82l158 135q58 47 114 0l160 -135q38 -34 14 -69q-20 -30 -60 -27q-23 1 -42 16l-129 105l-133 -107q-47 -37 -87 0zM141 51v1225q0 48 38.5 67.5t77 -0.5t38.5 -67v-1225q0 -33 -24 -52.5t-53 -20t-53 18.5t-24 54z" />
<glyph unicode="&#xcf;" horiz-adv-x="450" d="M-76 1485q0 37 27.5 61.5t64.5 24.5q33 0 61.5 -25t28.5 -61q0 -44 -27.5 -67t-62.5 -23q-37 0 -64.5 25.5t-27.5 64.5zM141 51v1225q0 48 38.5 67.5t77 -0.5t38.5 -67v-1225q0 -33 -24 -52.5t-53 -20t-53 18.5t-24 54zM326 1485q0 37 27.5 61.5t64.5 24.5 q35 0 63.5 -24.5t28.5 -61.5q0 -44 -27.5 -67t-64.5 -23t-64.5 25.5t-27.5 64.5z" />
<glyph unicode="&#xd0;" horiz-adv-x="1325" d="M-65.5 646.5q-0.5 23.5 19 43t54.5 19.5h70v508q0 35 28 60.5t66 25.5h446q119 0 220 -36.5t172 -99t121 -146t74 -177.5t24 -193t-24 -193t-74 -177t-121 -145.5t-172 -99t-220 -36.5h-446q-38 0 -66 26.5t-28 61.5v496h-70q-34 0 -53.5 19.5t-20 43zM227 137h391 q89 0 165.5 28.5t130 78t91.5 115t56 140t18 152.5t-18 152.5t-56 140.5t-91.5 115.5t-130 78.5t-165.5 29h-391v-458h160q42 0 60 -31.5t1 -62.5t-61 -31h-160v-447z" />
<glyph unicode="&#xd1;" horiz-adv-x="1415" d="M145 57q0 -48 39 -67.5t78 0.5t39 67v723l-16 283l766 -1026q21 -35 65.5 -44.5t81.5 14t37 71.5v1175q0 32 -24.5 49.5t-53.5 17t-53.5 -18t-24.5 -48.5v-725l21 -309l-789 1055q-25 37 -65 45.5t-70.5 -15.5t-30.5 -73v-1174zM419.5 1455.5q-14.5 28.5 6.5 70.5 q55 88 164 88q34 0 71.5 -15t65 -32t54 -29.5t48.5 -7.5t39 33q23 48 70 39q37 -6 51 -38q12 -27 -4 -53q-41 -83 -123 -99t-166 38q-127 83 -170 2q-20 -30 -56 -27.5t-50.5 31z" />
<glyph unicode="&#xd2;" horiz-adv-x="1525" d="M76 674q0 244 150 426.5t392 220.5q100 13 218 0q240 -37 399.5 -218t159.5 -429q0 -155 -53.5 -287.5t-144 -221.5t-209.5 -138.5t-249 -49.5q-138 0 -259 48.5t-211 136.5t-141.5 220.5t-51.5 291.5zM229 668q0 -164 67.5 -290t183 -192.5t259.5 -66.5q104 0 195.5 38 t160 107t108.5 173.5t40 230.5q0 198 -118.5 341.5t-307.5 174.5q-92 12 -178 0q-187 -29 -298.5 -168.5t-111.5 -347.5zM524 1665q28 32 75 30q40 -1 63 -32l165 -172q26 -30 1 -61q-27 -32 -73 -25q-23 4 -44 18l-181 166q-38 39 -6 76z" />
<glyph unicode="&#xd3;" horiz-adv-x="1525" d="M76 674q0 -159 51.5 -291.5t141.5 -220.5t211 -136.5t259 -48.5q130 0 249 49.5t209.5 138.5t144 221.5t53.5 287.5q0 248 -159.5 429t-399.5 218q-118 13 -218 0q-242 -38 -392 -220.5t-150 -426.5zM229 668q0 208 111.5 347.5t298.5 168.5q86 12 178 0 q189 -31 307.5 -174.5t118.5 -341.5q0 -126 -40 -230.5t-108.5 -173.5t-160 -107t-195.5 -38q-144 0 -259.5 66.5t-183 192.5t-67.5 290zM687 1462q1 16 11 29l160 166q37 46 92 31q41 -10 52 -42q11 -30 -17 -57l-176 -162q-46 -38 -90 -15q-34 18 -32 50z" />
<glyph unicode="&#xd4;" horiz-adv-x="1525" d="M76 674q0 -159 51.5 -291.5t141.5 -220.5t211 -136.5t259 -48.5q130 0 249 49.5t209.5 138.5t144 221.5t53.5 287.5q0 248 -159.5 429t-399.5 218q-118 13 -218 0q-242 -38 -392 -220.5t-150 -426.5zM229 668q0 208 111.5 347.5t298.5 168.5q86 12 178 0 q189 -31 307.5 -174.5t118.5 -341.5q0 -126 -40 -230.5t-108.5 -173.5t-160 -107t-195.5 -38q-144 0 -259.5 66.5t-183 192.5t-67.5 290zM507.5 1445q-6.5 27 20.5 58l160 135q61 44 117 0l164 -135q39 -33 13 -68q-21 -29 -62 -26q-23 1 -41 16l-131 103l-136 -105 q-30 -23 -64 -14t-40.5 36z" />
<glyph unicode="&#xd5;" horiz-adv-x="1525" d="M76 674q0 -159 51.5 -291.5t141.5 -220.5t211 -136.5t259 -48.5q130 0 249 49.5t209.5 138.5t144 221.5t53.5 287.5q0 248 -159.5 429t-399.5 218q-118 13 -218 0q-242 -38 -392 -220.5t-150 -426.5zM229 668q0 208 111.5 347.5t298.5 168.5q86 12 178 0 q189 -31 307.5 -174.5t118.5 -341.5q0 -126 -40 -230.5t-108.5 -173.5t-160 -107t-195.5 -38q-144 0 -259.5 66.5t-183 192.5t-67.5 290zM466.5 1469.5q-14.5 28.5 6.5 70.5q55 88 164 88q34 0 71.5 -15t65 -32t54 -29.5t48.5 -7.5t39 33q23 48 70 40q38 -7 52 -39 q11 -26 -5 -52q-41 -83 -123 -99.5t-166 37.5q-127 83 -170 2q-20 -30 -56 -27.5t-50.5 31z" />
<glyph unicode="&#xd6;" horiz-adv-x="1525" d="M76 674q0 -159 51.5 -291.5t141.5 -220.5t211 -136.5t259 -48.5q130 0 249 49.5t209.5 138.5t144 221.5t53.5 287.5q0 248 -159.5 429t-399.5 218q-118 13 -218 0q-242 -38 -392 -220.5t-150 -426.5zM229 668q0 208 111.5 347.5t298.5 168.5q86 12 178 0 q189 -31 307.5 -174.5t118.5 -341.5q0 -126 -40 -230.5t-108.5 -173.5t-160 -107t-195.5 -38q-144 0 -259.5 66.5t-183 192.5t-67.5 290zM449 1511q0 37 27.5 61.5t64.5 24.5q33 0 61.5 -25t28.5 -61q0 -44 -27.5 -67t-62.5 -23q-37 0 -64.5 25.5t-27.5 64.5zM850 1511 q0 37 27.5 61.5t64.5 24.5q35 0 63.5 -24.5t28.5 -61.5q0 -44 -27.5 -67t-64.5 -23t-64.5 25.5t-27.5 64.5z" />
<glyph unicode="&#xd8;" horiz-adv-x="1525" d="M76 674q0 244 150 426.5t392 220.5q100 13 218 0q107 -18 194 -61l84 139q12 21 32.5 29t40 2.5t36 -19t19.5 -35t-9 -45.5l-86 -145q116 -92 182 -224.5t66 -287.5t-53.5 -287.5t-144 -221.5t-209.5 -138.5t-249 -49.5q-144 0 -274 54l-88 -148q-19 -32 -47.5 -38 t-48.5 10t-29.5 41.5t8.5 56.5l86 143q-127 90 -198.5 238.5t-71.5 339.5zM229 668q0 -143 51 -257t142 -186l539 914q-78 35 -144 45q-92 12 -178 0q-187 -29 -298.5 -168.5t-111.5 -347.5zM539 156q90 -37 200 -37q104 0 195.5 38t160 107t108.5 173.5t40 230.5 q0 118 -44.5 220t-125.5 175z" />
<glyph unicode="&#xd9;" horiz-adv-x="1554" d="M152 578v673q0 43 38.5 60t76.5 -1t38 -61v-671q0 -107 38.5 -193.5t102 -140t144.5 -82.5t165.5 -29t165.5 29t144.5 82.5t102 140t38.5 193.5v671q0 47 38.5 66.5t77 0.5t38.5 -65v-673q0 -114 -34 -212t-92.5 -166.5t-136 -117.5t-164 -72.5t-177.5 -23.5t-177.5 23.5 t-164 72.5t-136 117.5t-92.5 166.5t-34 212zM556 1668q27 33 71 30q36 -3 57 -33l158 -176q20 -27 5.5 -55.5t-46.5 -34t-70 19.5l-170 168q-38 42 -5 81z" />
<glyph unicode="&#xda;" horiz-adv-x="1554" d="M152 578q0 -114 34 -212t92.5 -166.5t136 -117.5t164 -72.5t177.5 -23.5t177.5 23.5t164 72.5t136 117.5t92.5 166.5t34 212v673q0 46 -38.5 65t-77 -0.5t-38.5 -66.5v-671q0 -107 -38.5 -193.5t-102 -140t-144.5 -82.5t-165.5 -29t-165.5 29t-144.5 82.5t-102 140 t-38.5 193.5v671q0 43 -38 61t-76.5 1t-38.5 -60v-673zM673.5 1434q-9.5 26 6.5 53l156 162q37 45 91 32q41 -11 52 -43q10 -29 -18 -55l-175 -162q-34 -27 -68.5 -20t-44 33z" />
<glyph unicode="&#xdb;" horiz-adv-x="1554" d="M152 578q0 -114 34 -212t92.5 -166.5t136 -117.5t164 -72.5t177.5 -23.5t177.5 23.5t164 72.5t136 117.5t92.5 166.5t34 212v673q0 46 -38.5 65t-77 -0.5t-38.5 -66.5v-671q0 -107 -38.5 -193.5t-102 -140t-144.5 -82.5t-165.5 -29t-165.5 29t-144.5 82.5t-102 140 t-38.5 193.5v671q0 43 -38 61t-76.5 1t-38.5 -60v-673zM515.5 1473q3.5 19 21.5 36l161 131q62 48 119 0l164 -131q40 -34 15 -68q-22 -30 -63 -27q-23 2 -42 16l-133 102l-137 -105q-17 -13 -38 -15t-36 6.5t-25 22t-6.5 32.5z" />
<glyph unicode="&#xdc;" horiz-adv-x="1554" d="M152 578q0 -114 34 -212t92.5 -166.5t136 -117.5t164 -72.5t177.5 -23.5t177.5 23.5t164 72.5t136 117.5t92.5 166.5t34 212v673q0 46 -38.5 65t-77 -0.5t-38.5 -66.5v-671q0 -107 -38.5 -193.5t-102 -140t-144.5 -82.5t-165.5 -29t-165.5 29t-144.5 82.5t-102 140 t-38.5 193.5v671q0 43 -38 61t-76.5 1t-38.5 -60v-673zM477 1509q0 37 27.5 61.5t64.5 24.5q33 0 61.5 -25t28.5 -61q0 -44 -27.5 -67t-62.5 -23q-37 0 -64.5 25.5t-27.5 64.5zM879 1509q0 37 27.5 61.5t64.5 24.5q35 0 63.5 -24.5t28.5 -61.5q0 -44 -27.5 -67t-64.5 -23 t-64.5 25.5t-27.5 64.5z" />
<glyph unicode="&#xdd;" horiz-adv-x="1263" d="M12 1286.5q-18 -32.5 6 -74.5l519 -686v-458q0 -37 21 -56.5t54 -19.5q29 0 52.5 20t23.5 56v458l514 691q15 25 13.5 48t-18 37.5t-37 20.5t-43.5 -2.5t-38 -30.5l-469 -635l-463 633q-26 39 -71.5 35t-63.5 -36.5zM516 1419.5q-10 27.5 6 55.5l156 170q35 46 88 32 q40 -10 51 -43q11 -31 -16 -59l-172 -168q-33 -29 -68 -22t-45 34.5z" />
<glyph unicode="&#xde;" horiz-adv-x="1298" d="M156 63v1178q0 42 37 59.5t73.5 0t36.5 -61.5v-125h365q128 0 232 -41t168.5 -109t99 -152t34.5 -175q0 -93 -33.5 -173t-97.5 -141.5t-167.5 -97t-233.5 -35.5h-367v-124q0 -29 -15 -48.5t-36.5 -24t-43.5 0t-37 23.5t-15 46zM303 328h367q98 0 174 26.5t120.5 71 t66.5 98t20 113.5q-2 136 -106.5 238t-274.5 102h-367v-649z" />
<glyph unicode="&#xdf;" horiz-adv-x="1103" d="M109 -317v1286q0 81 24.5 144t63.5 101t93 62.5t107 33.5t111 9q59 0 114 -10t110.5 -35t96 -63t66 -100.5t25.5 -141.5t-53 -160t-128 -111q130 -33 201.5 -114t71.5 -203q0 -87 -28 -154t-74.5 -109.5t-112.5 -69.5t-135 -37.5t-150 -10.5h-117q-44 0 -61 33t1 66.5 t60 33.5h117q350 0 350 248q0 77 -42.5 130.5t-111.5 77t-159 23.5h-158q-28 0 -44.5 21.5t-16.5 47.5t16.5 47.5t44.5 21.5h58q137 0 229 57t92 162q0 49 -16.5 87.5t-43 62.5t-62 39.5t-70.5 21.5t-72 6q-46 0 -87 -10t-79 -33.5t-60 -68t-22 -105.5v-1286 q0 -31 -23.5 -49t-51 -18.5t-51 17.5t-23.5 50z" />
<glyph unicode="&#xe0;" d="M74 545q3 159 86.5 288t228.5 185l-2 -2q93 42 219 39q229 -4 324 -160v78q0 33 19.5 53.5t54.5 20.5q34 0 54.5 -20.5t20.5 -53.5v-910q0 -34 -20.5 -53.5t-54.5 -19.5q-35 0 -54.5 19.5t-19.5 53.5v99q-42 -85 -139 -136t-193 -51q-171 0 -295 88q-116 79 -175 204.5 t-54 277.5zM223 543q-7 -218 150 -348q89 -68 211 -78q145 0 242 84.5t104 234.5v162q0 146 -90.5 227.5t-235.5 87.5q-113 2 -211 -56.5t-139 -162.5q-28 -66 -31 -151zM410 1416q26 32 70 29q36 -2 57 -32l155 -172q20 -25 6 -52t-46 -32.5t-70 17.5l-166 165 q-38 40 -6 77z" />
<glyph unicode="&#xe1;" d="M74 545q3 159 86.5 288t228.5 185l-2 -2q93 42 219 39q229 -4 324 -160v78q0 33 19.5 53.5t54.5 20.5q34 0 54.5 -20.5t20.5 -53.5v-910q0 -34 -20.5 -53.5t-54.5 -19.5q-35 0 -54.5 19.5t-19.5 53.5v99q-42 -85 -139 -136t-193 -51q-171 0 -295 88q-116 79 -175 204.5 t-54 277.5zM223 543q-7 -218 150 -348q89 -68 211 -78q145 0 242 84.5t104 234.5v162q0 146 -90.5 227.5t-235.5 87.5q-113 2 -211 -56.5t-139 -162.5q-28 -66 -31 -151zM539.5 1194q-9.5 25 5.5 51l153 160q33 44 86 31q40 -10 52 -41q10 -29 -17 -54l-170 -157 q-32 -27 -66 -21t-43.5 31z" />
<glyph unicode="&#xe2;" d="M74 545q3 159 86.5 288t228.5 185l-2 -2q93 42 219 39q229 -4 324 -160v78q0 33 19.5 53.5t54.5 20.5q34 0 54.5 -20.5t20.5 -53.5v-910q0 -34 -20.5 -53.5t-54.5 -19.5q-35 0 -54.5 19.5t-19.5 53.5v99q-42 -85 -139 -136t-193 -51q-171 0 -295 88q-116 79 -175 204.5 t-54 277.5zM223 543q-7 -218 150 -348q89 -68 211 -78q145 0 242 84.5t104 234.5v162q0 146 -90.5 227.5t-235.5 87.5q-113 2 -211 -56.5t-139 -162.5q-28 -66 -31 -151zM362.5 1241.5q3.5 19.5 20.5 36.5l160 135q58 47 114 0l162 -135q38 -34 14 -69q-20 -30 -60 -27 q-23 1 -42 16l-131 105l-133 -107q-18 -14 -38.5 -16t-35.5 6.5t-24.5 22t-6 33z" />
<glyph unicode="&#xe3;" d="M74 545q3 159 86.5 288t228.5 185l-2 -2q93 42 219 39q229 -4 324 -160v78q0 33 19.5 53.5t54.5 20.5q34 0 54.5 -20.5t20.5 -53.5v-910q0 -34 -20.5 -53.5t-54.5 -19.5q-35 0 -54.5 19.5t-19.5 53.5v99q-42 -85 -139 -136t-193 -51q-171 0 -295 88q-116 79 -175 204.5 t-54 277.5zM223 543q-7 -218 150 -348q89 -68 211 -78q145 0 242 84.5t104 234.5v162q0 146 -90.5 227.5t-235.5 87.5q-113 2 -211 -56.5t-139 -162.5q-28 -66 -31 -151zM341.5 1236.5q-14.5 28.5 6.5 70.5q55 88 164 88q34 0 71.5 -15t65.5 -32t54.5 -30t48.5 -8t39 33 q22 47 69 40q37 -6 51 -38q12 -26 -4 -53q-41 -83 -123 -99t-166 38q-127 82 -169 2q-20 -30 -56.5 -27.5t-51 31z" />
<glyph unicode="&#xe4;" d="M74 545q3 159 86.5 288t228.5 185l-2 -2q93 42 219 39q229 -4 324 -160v78q0 33 19.5 53.5t54.5 20.5q34 0 54.5 -20.5t20.5 -53.5v-910q0 -34 -20.5 -53.5t-54.5 -19.5q-35 0 -54.5 19.5t-19.5 53.5v99q-42 -85 -139 -136t-193 -51q-171 0 -295 88q-116 79 -175 204.5 t-54 277.5zM223 543q-7 -218 150 -348q89 -68 211 -78q145 0 242 84.5t104 234.5v162q0 146 -90.5 227.5t-235.5 87.5q-113 2 -211 -56.5t-139 -162.5q-28 -66 -31 -151zM326 1276q0 37 27.5 61.5t64.5 24.5q33 0 61.5 -25t28.5 -61q0 -44 -27.5 -67t-62.5 -23 q-37 0 -64.5 25.5t-27.5 64.5zM727 1276q0 37 27.5 61.5t64.5 24.5q35 0 63.5 -24.5t28.5 -61.5q0 -44 -27.5 -67t-64.5 -23t-64.5 25.5t-27.5 64.5z" />
<glyph unicode="&#xe5;" d="M74 545q3 159 86.5 288t228.5 185l-2 -2q93 42 219 39q229 -4 324 -160v78q0 33 19.5 53.5t54.5 20.5q34 0 54.5 -20.5t20.5 -53.5v-910q0 -34 -20.5 -53.5t-54.5 -19.5q-35 0 -54.5 19.5t-19.5 53.5v99q-42 -85 -139 -136t-193 -51q-171 0 -295 88q-116 79 -175 204.5 t-54 277.5zM223 543q-7 -218 150 -348q89 -68 211 -78q145 0 242 84.5t104 234.5v162q0 146 -90.5 227.5t-235.5 87.5q-113 2 -211 -56.5t-139 -162.5q-28 -66 -31 -151zM430 1276q0 72 52.5 122t127.5 50q74 0 126 -50t52 -122q0 -74 -52 -125t-126 -51q-75 0 -127.5 50.5 t-52.5 125.5zM547 1276q0 -28 19 -48t44 -20q24 0 42 20.5t18 47.5q0 26 -18 43.5t-42 17.5q-25 0 -44 -17.5t-19 -43.5z" />
<glyph unicode="&#xe6;" horiz-adv-x="2136" d="M92 545q3 158 86.5 287.5t227.5 185.5l-3 -2q95 42 222 39q94 -2 185.5 -41.5t139.5 -124.5v98q0 33 23 50.5t50 16t50 -19.5t23 -47v-106q120 176 387 176q79 0 151 -19q176 -48 278 -183.5t105 -330.5v2q5 -102 -102 -102h-815q27 -136 133 -215t248 -82q149 -3 274 90 h-2q30 23 59 19t49.5 -20t19.5 -46t-30 -59q-135 -126 -364 -123q-117 0 -221 42t-170 134v-115q0 -44 -36.5 -62.5t-73 0t-36.5 62.5v107q-56 -92 -144 -136.5t-192 -44.5q-105 0 -196 39l2 -2q-164 68 -248.5 209t-79.5 324zM242 543q-7 -220 151 -348h-2q89 -68 211 -78 q83 0 172 39h-2q83 40 130 113t52 167v162q0 138 -92 221t-241 94q-113 0 -210.5 -58.5t-138.5 -160.5q-27 -64 -30 -151zM1094 561h772q-11 131 -82.5 222t-190.5 122h2q-54 13 -108 13q-165 0 -268 -96.5t-125 -260.5z" />
<glyph unicode="&#xe7;" horiz-adv-x="1087" d="M72 557q12 226 158 361t376 135q110 0 200.5 -41t170.5 -133q15 -20 15.5 -41.5t-14 -37.5t-33 -25t-41 -5t-38.5 23q-108 125 -276 125q-163 0 -266 -113t-103 -289q0 -151 86 -256q51 -64 129 -98.5t162 -34.5q85 0 160 33t125 102q24 33 66.5 25t58 -42t-12.5 -75 q-126 -155 -336 -178l-30 -76q84 7 129 -35.5t45 -101.5q0 -78 -54.5 -125t-125.5 -53.5t-143 19.5t-105 81q-19 36 0 68.5t50.5 34.5t55.5 -27q12 -19 36 -33t49.5 -18.5t49 -2.5t39 16t15.5 36q0 27 -27 43t-59 15.5t-58 -7.5l-49 53l39 115q-95 12 -180 57.5t-146 118.5 q-130 161 -118 387z" />
<glyph unicode="&#xe8;" horiz-adv-x="1267" d="M82.5 500.5q-3.5 86.5 19 172.5t68 157.5t119 126.5t166.5 81q145 44 307 0h2q174 -48 275 -183.5t104 -330.5v2q3 -39 -20 -66.5t-81 -27.5h-809q21 -131 123.5 -219t251.5 -88q160 0 273 86q26 24 56.5 23.5t50 -17.5t19.5 -47t-28 -59q-135 -126 -365 -123 q-124 0 -234.5 47t-180.5 135q-54 72 -83.5 158t-33 172.5zM227 557h772q-11 131 -85.5 224t-194.5 124h2q-111 29 -221 -2q-121 -32 -192.5 -125.5t-80.5 -220.5zM422 1420q27 33 72 30q35 -3 57 -33l156 -180q20 -27 5.5 -56t-46.5 -35t-70 19l-168 172q-38 43 -6 83z" />
<glyph unicode="&#xe9;" horiz-adv-x="1267" d="M82.5 500.5q-3.5 86.5 19 172.5t68 157.5t119 126.5t166.5 81q145 44 307 0h2q174 -48 275 -183.5t104 -330.5v2q3 -39 -20 -66.5t-81 -27.5h-809q21 -131 123.5 -219t251.5 -88q160 0 273 86q26 24 56.5 23.5t50 -17.5t19.5 -47t-28 -59q-135 -126 -365 -123 q-124 0 -234.5 47t-180.5 135q-54 72 -83.5 158t-33 172.5zM227 557h772q-11 131 -85.5 224t-194.5 124h2q-111 29 -221 -2q-121 -32 -192.5 -125.5t-80.5 -220.5zM554.5 1203q0.5 18 10.5 34l152 170q35 46 87 33q39 -11 51 -44q11 -31 -17 -59l-168 -168 q-20 -17 -41.5 -21.5t-37 3t-26.5 21t-10.5 31.5z" />
<glyph unicode="&#xea;" horiz-adv-x="1267" d="M82.5 500.5q-3.5 86.5 19 172.5t68 157.5t119 126.5t166.5 81q145 44 307 0h2q174 -48 275 -183.5t104 -330.5v2q3 -39 -20 -66.5t-81 -27.5h-809q21 -131 123.5 -219t251.5 -88q160 0 273 86q26 24 56.5 23.5t50 -17.5t19.5 -47t-28 -59q-135 -126 -365 -123 q-124 0 -234.5 47t-180.5 135q-54 72 -83.5 158t-33 172.5zM227 557h772q-11 131 -85.5 224t-194.5 124h2q-111 29 -221 -2q-121 -32 -192.5 -125.5t-80.5 -220.5zM379.5 1184.5q-2.5 22.5 21.5 48.5l158 139q59 50 115 0l160 -139q31 -30 20 -61.5t-44 -37.5t-65 15 l-129 108l-133 -110q-22 -18 -47 -17.5t-39.5 16.5t-17 38.5z" />
<glyph unicode="&#xeb;" horiz-adv-x="1267" d="M82.5 500.5q-3.5 86.5 19 172.5t68 157.5t119 126.5t166.5 81q145 44 307 0h2q174 -48 275 -183.5t104 -330.5v2q3 -39 -20 -66.5t-81 -27.5h-809q21 -131 123.5 -219t251.5 -88q160 0 273 86q26 24 56.5 23.5t50 -17.5t19.5 -47t-28 -59q-135 -126 -365 -123 q-124 0 -234.5 47t-180.5 135q-54 72 -83.5 158t-33 172.5zM227 557h772q-11 131 -85.5 224t-194.5 124h2q-111 29 -221 -2q-121 -32 -192.5 -125.5t-80.5 -220.5zM338 1245q0 37 27.5 61.5t64.5 24.5q33 0 61.5 -25t28.5 -61q0 -44 -27.5 -67t-62.5 -23q-37 0 -64.5 25.5 t-27.5 64.5zM739 1245q0 37 27.5 61.5t64.5 24.5q36 0 64.5 -24.5t28.5 -61.5q0 -44 -27.5 -67t-65.5 -23q-37 0 -64.5 25.5t-27.5 64.5z" />
<glyph unicode="&#xec;" horiz-adv-x="413" d="M-15 1418q27 33 70 30q36 -2 58 -33l153 -182q11 -17 11.5 -35t-11.5 -32t-28 -21.5t-38 -4t-42 20.5l-168 174q-37 43 -5 83zM121 53v922q0 25 15.5 42.5t37.5 21.5t43.5 0.5t37 -20.5t15.5 -42v-924q0 -32 -23.5 -50t-51 -17.5t-51 18.5t-23.5 49z" />
<glyph unicode="&#xed;" horiz-adv-x="413" d="M121 53q0 -31 23.5 -49t51 -18.5t51 17.5t23.5 50v924q0 25 -15.5 42t-37 20.5t-43.5 -0.5t-37.5 -21.5t-15.5 -42.5v-922zM129 1188q-10 26 6 53l156 166q37 45 90 32q41 -11 52 -43q10 -30 -17 -57l-174 -161q-33 -28 -68 -22t-45 32z" />
<glyph unicode="&#xee;" horiz-adv-x="413" d="M-48.5 1174q-2.5 22 21.5 47l160 139q59 47 115 0l162 -139q31 -29 20 -60t-43.5 -37t-64.5 15l-132 106l-133 -108q-22 -18 -48 -17t-40.5 16.5t-17 37.5zM121 53q0 -31 23.5 -49t51 -18.5t51 17.5t23.5 50v924q0 25 -15.5 42t-37 20.5t-43.5 -0.5t-37.5 -21.5 t-15.5 -42.5v-922z" />
<glyph unicode="&#xef;" horiz-adv-x="413" d="M-78 1251q0 37 27.5 61.5t64.5 24.5q33 0 61.5 -25t28.5 -61q0 -44 -27.5 -67t-62.5 -23q-37 0 -64.5 25.5t-27.5 64.5zM121 53q0 -31 23.5 -49t51 -18.5t51 17.5t23.5 50v924q0 25 -15.5 42t-37 20.5t-43.5 -0.5t-37.5 -21.5t-15.5 -42.5v-922zM287 1251q0 37 27.5 61.5 t64.5 24.5q35 0 63.5 -24.5t28.5 -61.5q0 -44 -27.5 -67t-64.5 -23t-64.5 25.5t-27.5 64.5z" />
<glyph unicode="&#xf0;" horiz-adv-x="1187" d="M51 539q0 110 43 211q59 139 186 214.5t275 75.5q105 0 201.5 -44t146.5 -136v98q0 119 -102 191l-43 -47q-16 -20 -36.5 -25.5t-37 2.5t-27.5 23t-9 36.5t18 41.5l36 39q-74 38 -159 38q-79 0 -157.5 -29.5t-133.5 -84.5q-24 -23 -52 -23.5t-43.5 17.5t-19 44t20.5 54 q128 131 325 154q184 13 318 -64l53 59q27 29 64 21t47.5 -36.5t-13.5 -61.5l-53 -56q152 -117 152 -288v-537q-2 -110 -56 -206.5t-153 -156.5h2q-107 -69 -258 -69q-170 0 -291 84l2 -2q-115 74 -180.5 199t-65.5 264zM205 539q0 -63 12 -109q43 -155 160 -233 q97 -66 209 -66q99 0 182 51q62 36 98 103t39 143v150q0 65 -34 125.5t-86.5 102.5t-116 67.5t-121.5 25.5q-104 0 -189.5 -52t-126.5 -153q-26 -68 -26 -155z" />
<glyph unicode="&#xf1;" horiz-adv-x="1320" d="M137 59v918q0 27 15 45.5t37 22.5t44 0t37 -23t15 -47v-127q53 107 158 160t233 53q122 0 226 -52t171.5 -158.5t67.5 -248.5v-543q0 -34 -19.5 -52.5t-54.5 -18.5q-34 0 -55 19t-21 52v543q0 138 -94.5 229t-222.5 91q-153 0 -269 -112t-116 -275v-476 q0 -34 -19.5 -52.5t-54.5 -18.5q-36 0 -57 19t-21 52zM380.5 1226q-14.5 28 6.5 70q55 88 164 88q34 0 71.5 -15t65 -32t54 -29.5t48.5 -7.5t39 33q23 48 70 40q38 -7 52 -39q11 -26 -5 -52q-41 -83 -123 -99t-166 38q-127 83 -170 2q-20 -30 -56 -27.5t-50.5 30.5z" />
<glyph unicode="&#xf2;" d="M74 559q15 175 114.5 305t264.5 176q67 19 155 19q80 0 152 -19q165 -47 266 -177t115 -304q12 -230 -123 -393q-74 -90 -180.5 -137t-229.5 -47q-124 0 -229.5 47t-179.5 137q-134 159 -125 393zM225 516q0 -154 90 -260q54 -64 131 -99.5t162 -35.5q83 0 162 36.5 t133 98.5q42 52 66 120.5t24 135.5q0 143 -73 251.5t-201 141.5q-62 15 -113 15q-50 0 -108 -15q-127 -33 -200 -140.5t-73 -248.5zM400 1430q26 32 71 29q36 -2 57 -32l158 -172q20 -27 5.5 -54.5t-46.5 -33t-70 18.5l-169 166q-37 41 -6 78z" />
<glyph unicode="&#xf3;" d="M74 559q15 175 114.5 305t264.5 176q67 19 155 19q80 0 152 -19q165 -47 266 -177t115 -304q12 -230 -123 -393q-74 -90 -180.5 -137t-229.5 -47q-124 0 -229.5 47t-179.5 137q-134 159 -125 393zM225 516q0 -154 90 -260q54 -64 131 -99.5t162 -35.5q83 0 162 36.5 t133 98.5q42 52 66 120.5t24 135.5q0 143 -73 251.5t-201 141.5q-62 15 -113 15q-50 0 -108 -15q-127 -33 -200 -140.5t-73 -248.5zM545.5 1190q-9.5 26 5.5 53l154 166q35 46 88 31q40 -10 51 -42q10 -30 -17 -57l-170 -161q-33 -28 -67.5 -22t-44 32z" />
<glyph unicode="&#xf4;" d="M74 559q15 175 114.5 305t264.5 176q67 19 155 19q80 0 152 -19q165 -47 266 -177t115 -304q12 -230 -123 -393q-74 -90 -180.5 -137t-229.5 -47q-124 0 -229.5 47t-179.5 137q-134 159 -125 393zM225 516q0 -154 90 -260q54 -64 131 -99.5t162 -35.5q83 0 162 36.5 t133 98.5q42 52 66 120.5t24 135.5q0 143 -73 251.5t-201 141.5q-62 15 -113 15q-50 0 -108 -15q-127 -33 -200 -140.5t-73 -248.5zM379 1223.5q0 24.5 22 46.5l160 139q59 47 117 0l162 -139q31 -29 20 -59.5t-44 -36.5t-66 14l-132 108l-135 -110q-24 -20 -47.5 -16.5 t-40 16.5t-16.5 37.5z" />
<glyph unicode="&#xf5;" d="M74 559q15 175 114.5 305t264.5 176q67 19 155 19q80 0 152 -19q165 -47 266 -177t115 -304q12 -230 -123 -393q-74 -90 -180.5 -137t-229.5 -47q-124 0 -229.5 47t-179.5 137q-134 159 -125 393zM225 516q0 -154 90 -260q54 -64 131 -99.5t162 -35.5q83 0 162 36.5 t133 98.5q42 52 66 120.5t24 135.5q0 143 -73 251.5t-201 141.5q-62 15 -113 15q-50 0 -108 -15q-127 -33 -200 -140.5t-73 -248.5zM331.5 1240.5q-14.5 28.5 6.5 70.5q55 88 164 88q34 0 71.5 -15t65 -32t54 -29.5t48.5 -7.5t39 33q23 48 70 39q37 -6 51 -38q12 -27 -4 -53 q-41 -83 -123 -99t-166 38q-127 83 -170 2q-20 -30 -56 -27.5t-50.5 31z" />
<glyph unicode="&#xf6;" d="M74 559q15 175 114.5 305t264.5 176q67 19 155 19q80 0 152 -19q165 -47 266 -177t115 -304q12 -230 -123 -393q-74 -90 -180.5 -137t-229.5 -47q-124 0 -229.5 47t-179.5 137q-134 159 -125 393zM225 516q0 -154 90 -260q54 -64 131 -99.5t162 -35.5q83 0 162 36.5 t133 98.5q42 52 66 120.5t24 135.5q0 143 -73 251.5t-201 141.5q-62 15 -113 15q-50 0 -108 -15q-127 -33 -200 -140.5t-73 -248.5zM317 1255q0 37 28 61.5t65 24.5q33 0 61.5 -25t28.5 -61q0 -44 -27.5 -67t-62.5 -23q-37 0 -65 26t-28 64zM719 1255q0 37 27.5 61.5 t64.5 24.5q35 0 63.5 -24.5t28.5 -61.5q0 -44 -27.5 -67t-64.5 -23t-64.5 25.5t-27.5 64.5z" />
<glyph unicode="&#xf7;" horiz-adv-x="1001" d="M51.5 636q18.5 32 63.5 32h696q46 0 66 -32t1.5 -63.5t-67.5 -31.5h-696q-44 0 -63 31.5t-0.5 63.5zM365 346q0 39 24.5 63.5t63.5 24.5q40 0 66 -25t26 -63t-26 -63t-66 -25q-39 0 -63.5 24.5t-24.5 63.5zM365 879q0 39 24.5 63.5t63.5 24.5q40 0 66 -25t26 -63t-26 -62 t-66 -24t-64 24t-24 62z" />
<glyph unicode="&#xf8;" horiz-adv-x="1251" d="M74 559q16 168 116 300.5t263 178.5q67 19 155 19q80 0 152 -19q44 -14 55 -14l64 111q21 40 62.5 40.5t66 -31t4.5 -69.5l-80 -123q90 -71 145 -174.5t64 -218.5q12 -226 -123 -389q-74 -89 -180.5 -135.5t-229.5 -46.5q-111 0 -207 35l-69 -121q-23 -36 -60.5 -37.5 t-59 27.5t-5.5 69l74 129q-36 27 -82 80q-134 159 -125 389zM225 516q0 -150 90 -256q18 -24 39 -39l389 674q-103 40 -247 6h2q-125 -33 -199 -142t-74 -243zM473 147q65 -20 135 -20q87 0 164 34.5t131 98.5q88 104 88 250q0 83 -36.5 168t-94.5 145z" />
<glyph unicode="&#xf9;" horiz-adv-x="1323" d="M133 438v543q0 34 19.5 53t54.5 19q34 0 55 -19.5t21 -52.5v-543q0 -137 94.5 -228t222.5 -91q153 0 269 112t116 275v475q0 34 19.5 53t54.5 19q36 0 57 -19.5t21 -52.5v-918q0 -27 -15 -45.5t-37 -22.5t-44 0.5t-37 23.5t-15 47v129q-53 -107 -158.5 -161t-232.5 -54 q-90 0 -173 30.5t-148.5 87t-104.5 145t-39 195.5zM445 1427q26 33 70 29q35 -3 56 -33l156 -176q20 -27 5.5 -55t-46.5 -33.5t-70 19.5l-165 168q-38 42 -6 81z" />
<glyph unicode="&#xfa;" horiz-adv-x="1323" d="M133 438v543q0 34 19.5 53t54.5 19q34 0 55 -19.5t21 -52.5v-543q0 -137 94.5 -228t222.5 -91q153 0 269 112t116 275v475q0 34 19.5 53t54.5 19q36 0 57 -19.5t21 -52.5v-918q0 -27 -15 -45.5t-37 -22.5t-44 0.5t-37 23.5t-15 47v129q-53 -107 -158.5 -161t-232.5 -54 q-90 0 -173 30.5t-148.5 87t-104.5 145t-39 195.5zM544 1211q1 15 11 28l158 162q37 44 91 31q40 -10 52 -42q10 -29 -18 -55l-174 -159q-46 -36 -89 -14q-34 17 -31 49z" />
<glyph unicode="&#xfb;" horiz-adv-x="1323" d="M133 438v543q0 34 19.5 53t54.5 19q34 0 55 -19.5t21 -52.5v-543q0 -137 94.5 -228t222.5 -91q153 0 269 112t116 275v475q0 34 19.5 53t54.5 19q36 0 57 -19.5t21 -52.5v-918q0 -27 -15 -45.5t-37 -22.5t-44 0.5t-37 23.5t-15 47v129q-53 -107 -158.5 -161t-232.5 -54 q-90 0 -173 30.5t-148.5 87t-104.5 145t-39 195.5zM401.5 1196.5q3.5 19.5 20.5 36.5l160 135q58 47 114 0l162 -135q38 -34 14 -69q-20 -30 -60 -27q-23 1 -42 16l-131 104l-133 -106q-18 -14 -38.5 -16t-35.5 6.5t-24.5 22t-6 33z" />
<glyph unicode="&#xfc;" horiz-adv-x="1323" d="M133 438v543q0 34 19.5 53t54.5 19q34 0 55 -19.5t21 -52.5v-543q0 -137 94.5 -228t222.5 -91q153 0 269 112t116 275v475q0 34 19.5 53t54.5 19q36 0 57 -19.5t21 -52.5v-918q0 -27 -15 -45.5t-37 -22.5t-44 0.5t-37 23.5t-15 47v129q-53 -107 -158.5 -161t-232.5 -54 q-90 0 -173 30.5t-148.5 87t-104.5 145t-39 195.5zM344 1249q0 37 27.5 61.5t64.5 24.5q33 0 61.5 -25t28.5 -61q0 -44 -27.5 -67t-62.5 -23q-37 0 -64.5 25.5t-27.5 64.5zM745 1249q0 37 28 61.5t65 24.5q35 0 63.5 -24.5t28.5 -61.5q0 -44 -27.5 -67t-64.5 -23t-65 26 t-28 64z" />
<glyph unicode="&#xfd;" horiz-adv-x="1144" d="M14.5 1000.5q-5.5 -22.5 3.5 -46.5l449 -882l-180 -367q-19 -46 6.5 -77t67.5 -25t65 51l657 1307q12 30 -2.5 55.5t-40.5 35t-54.5 1t-41.5 -36.5l-391 -793l-395 791q-12 26 -34 37t-43.5 5.5t-41 -19.5t-25 -36.5zM490 1168.5q-6 21.5 10 45.5l149 183q33 48 83 35 q39 -9 51 -44q13 -34 -15 -65l-166 -180q-24 -23 -50 -25t-41 13.5t-21 37z" />
<glyph unicode="&#xfe;" horiz-adv-x="1247" d="M137 -303v1675q0 33 20.5 52.5t55.5 19.5t54.5 -19.5t19.5 -52.5v-491q51 82 138 127t183 47q128 3 221 -39l-2 2q143 -56 227 -185t89 -288q5 -182 -80.5 -323.5t-249.5 -209.5l2 2q-91 -39 -197 -39q-101 0 -191 45.5t-140 135.5v-459q0 -33 -21 -51.5t-55 -18.5 q-32 0 -53 18.5t-21 51.5zM287 436q9 -144 106 -231.5t238 -87.5q125 10 211 78h-2q156 127 153 348q-3 78 -30 151q-43 103 -140.5 161t-210.5 58q-136 -6 -224.5 -95t-100.5 -220v-162z" />
<glyph unicode="&#xff;" horiz-adv-x="1144" d="M14.5 1000.5q-5.5 -22.5 3.5 -46.5l449 -882l-180 -367q-19 -46 6.5 -77t67.5 -25t65 51l657 1307q12 30 -2.5 55.5t-40.5 35t-54.5 1t-41.5 -36.5l-391 -793l-395 791q-12 26 -34 37t-43.5 5.5t-41 -19.5t-25 -36.5zM258 1225q0 37 27.5 61.5t64.5 24.5q33 0 61.5 -25 t28.5 -61q0 -44 -27.5 -67t-62.5 -23q-37 0 -64.5 25.5t-27.5 64.5zM659 1225q0 37 28 61.5t65 24.5q35 0 63.5 -24.5t28.5 -61.5q0 -44 -27.5 -67t-64.5 -23t-65 26t-28 64z" />
<glyph unicode="&#x152;" horiz-adv-x="2177" d="M94 674q4 160 68 296.5t185 231t280 119.5q66 8 110 8q247 0 365 -137q0 111 94 111h784q23 0 40 -14t21.5 -34t1.5 -40t-20.5 -34t-44.5 -14h-733v-454h694q28 0 44 -21t16.5 -46.5t-15.5 -46.5t-45 -21h-694v-439h733q30 0 47 -21.5t17.5 -48t-17 -48t-47.5 -21.5h-778 q-43 0 -70.5 29t-27.5 88q-54 -72 -150.5 -106t-201.5 -34q-134 0 -254.5 49t-211 137t-142.5 220.5t-48 290.5zM244 668q-3 -121 37 -226t109.5 -175.5t163 -111t196.5 -40.5q218 0 352 137v801q-154 137 -363 137q-41 0 -88 -6h-2q-122 -19 -213.5 -94t-139.5 -184.5 t-52 -237.5z" />
<glyph unicode="&#x153;" horiz-adv-x="2164" d="M57 559q14 167 114.5 300t264.5 179q66 19 156 19q79 0 151 -19q97 -27 175.5 -94t130.5 -158q46 92 125.5 158.5t179.5 93.5q66 19 155 19q228 0 375.5 -146t159.5 -387v2q4 -42 -18 -72t-82 -30h-809q20 -93 84 -164q109 -130 288 -133q150 -3 275 90h-2 q20 18 43.5 21.5t41.5 -6.5t30 -27.5t8 -43t-25 -50.5q-66 -63 -162.5 -94t-202.5 -29q-323 0 -464 260q-53 -117 -181.5 -188.5t-275.5 -71.5q-125 0 -231.5 46.5t-180.5 135.5q-135 163 -123 389zM209 516q0 -150 90 -256q54 -64 130.5 -98.5t162.5 -34.5q83 0 162 35.5 t133 97.5q90 111 90 252q0 107 -48 198.5t-138 148t-201 56.5q-53 0 -111 -14h2q-126 -33 -199 -142t-73 -243zM1128 551h766q-12 133 -84 228.5t-190 125.5h2q-54 13 -109 13q-61 0 -114 -15q-119 -32 -191 -128.5t-80 -223.5z" />
<glyph unicode="&#x178;" horiz-adv-x="1263" d="M12 1286.5q-18 -32.5 6 -74.5l519 -686v-458q0 -37 21 -56.5t54 -19.5q29 0 52.5 20t23.5 56v458l514 691q15 25 13.5 48t-18 37.5t-37 20.5t-43.5 -2.5t-38 -30.5l-469 -635l-463 633q-26 39 -71.5 35t-63.5 -36.5zM338 1493q0 37 27.5 61.5t64.5 24.5q33 0 61.5 -25 t28.5 -61q0 -44 -27.5 -67t-62.5 -23q-37 0 -64.5 25.5t-27.5 64.5zM719 1493q0 37 27.5 61.5t64.5 24.5q35 0 63.5 -24.5t28.5 -61.5q0 -44 -27.5 -67t-64.5 -23t-64.5 25.5t-27.5 64.5z" />
<glyph unicode="&#x2c6;" horiz-adv-x="661" d="M64.5 1177q-2.5 24 21.5 50l158 147q58 50 114 0l160 -147q14 -14 19.5 -28.5t2.5 -27t-10 -23.5t-19 -17.5t-25.5 -9t-28 2t-27.5 15.5l-129 114l-133 -116q-22 -19 -47 -18t-39.5 17.5t-17 40.5z" />
<glyph unicode="&#x2dc;" horiz-adv-x="722" d="M71.5 1242.5q-14.5 28.5 6.5 70.5q55 88 164 88q34 0 71.5 -15t65 -32t54 -29.5t48.5 -7.5t39 33q23 48 70 39q37 -6 51 -38q12 -27 -4 -53q-41 -83 -123 -99t-166 38q-127 83 -170 2q-20 -30 -56 -27.5t-50.5 31z" />
<glyph unicode="&#x2000;" horiz-adv-x="853" />
<glyph unicode="&#x2001;" horiz-adv-x="1706" />
<glyph unicode="&#x2002;" horiz-adv-x="853" />
<glyph unicode="&#x2003;" horiz-adv-x="1706" />
<glyph unicode="&#x2004;" horiz-adv-x="568" />
<glyph unicode="&#x2005;" horiz-adv-x="426" />
<glyph unicode="&#x2006;" horiz-adv-x="284" />
<glyph unicode="&#x2007;" horiz-adv-x="284" />
<glyph unicode="&#x2008;" horiz-adv-x="213" />
<glyph unicode="&#x2009;" horiz-adv-x="341" />
<glyph unicode="&#x200a;" horiz-adv-x="94" />
<glyph unicode="&#x2010;" horiz-adv-x="747" d="M75 573.5q-19 34.5 1.5 68.5t66.5 34h414q36 0 57 -21.5t21.5 -47t-20.5 -47t-58 -21.5h-414q-49 0 -68 34.5z" />
<glyph unicode="&#x2011;" horiz-adv-x="747" d="M75 573.5q-19 34.5 1.5 68.5t66.5 34h414q36 0 57 -21.5t21.5 -47t-20.5 -47t-58 -21.5h-414q-49 0 -68 34.5z" />
<glyph unicode="&#x2012;" horiz-adv-x="747" d="M75 573.5q-19 34.5 1.5 68.5t66.5 34h414q36 0 57 -21.5t21.5 -47t-20.5 -47t-58 -21.5h-414q-49 0 -68 34.5z" />
<glyph unicode="&#x2013;" horiz-adv-x="831" d="M70.5 577.5q-18.5 34.5 0.5 69.5t64 35h527q40 0 58 -35t1.5 -69.5t-59.5 -34.5h-525q-48 0 -66.5 34.5z" />
<glyph unicode="&#x2014;" horiz-adv-x="1097" d="M83.5 577.5q-15.5 34.5 2 69.5t55.5 35h789q31 0 49 -21.5t18.5 -48t-17.5 -48t-50 -21.5h-789q-42 0 -57.5 34.5z" />
<glyph unicode="&#x2018;" horiz-adv-x="296" d="M33 1090l92 192q21 42 58.5 44.5t59 -28.5t3.5 -71l-84 -197q-19 -42 -60.5 -43.5t-65.5 31t-3 72.5z" />
<glyph unicode="&#x2019;" horiz-adv-x="274" d="M25 1087l84 197q19 42 60.5 43.5t65.5 -30.5t3 -72l-93 -193q-21 -42 -58 -44.5t-58.5 28.5t-3.5 71z" />
<glyph unicode="&#x201a;" horiz-adv-x="301" d="M-2 -150.5q-4 22.5 6 46.5l84 196q19 42 60.5 43.5t65.5 -30.5t3 -72l-92 -193q-13 -26 -33.5 -37t-39 -6.5t-34.5 17.5t-20 35.5z" />
<glyph unicode="&#x201c;" horiz-adv-x="509" d="M33 1090l92 192q13 26 34 38t40 8.5t35 -15.5t19.5 -35.5t-7.5 -50.5l-84 -197q-19 -42 -60.5 -43.5t-65.5 31t-3 72.5zM272 1090l97 186q12 25 31.5 36t37.5 8t34 -14.5t19.5 -33t-6.5 -45.5l-84 -197q-19 -42 -60.5 -43.5t-65.5 31t-3 72.5z" />
<glyph unicode="&#x201d;" horiz-adv-x="520" d="M16.5 1033.5q-3.5 21.5 6.5 45.5l83 197q19 42 60.5 43.5t66 -30.5t3.5 -72l-97 -187q-12 -25 -31.5 -36t-37.5 -8t-34 14.5t-19.5 33zM254.5 1028.5q-3.5 23.5 7.5 50.5l84 197q19 42 60.5 43.5t65.5 -30.5t3 -72l-92 -193q-13 -26 -34 -38t-40 -8.5t-35 15.5 t-19.5 35.5z" />
<glyph unicode="&#x201e;" horiz-adv-x="509" d="M-2 -150.5q-4 22.5 6 46.5l84 196q19 42 60.5 43.5t65.5 -30.5t3 -72l-92 -193q-13 -26 -33.5 -37t-39 -6.5t-34.5 17.5t-20 35.5zM256 -150.5q-4 22.5 6 46.5l84 196q19 42 60.5 43.5t65.5 -30.5t3 -72l-92 -193q-13 -26 -33.5 -37t-39 -6.5t-34.5 17.5t-20 35.5z" />
<glyph unicode="&#x2022;" horiz-adv-x="479" d="M45 608q0 71 50 120.5t120 49.5q75 0 124.5 -49t49.5 -121q0 -70 -50 -119t-124 -49q-69 0 -119.5 49.5t-50.5 118.5z" />
<glyph unicode="&#x2026;" horiz-adv-x="751" d="M8 88q0 38 26 61t66 23t64 -23t24 -61q0 -39 -24.5 -63.5t-63.5 -24.5q-40 0 -66 25t-26 63zM256 88q0 38 25 61t65 23t65 -23t25 -61t-25 -63t-65 -25t-65 25t-25 63zM504 88q0 38 24 61t64 23t66 -23t26 -61t-26 -63t-66 -25q-39 0 -63.5 24.5t-24.5 63.5z" />
<glyph unicode="&#x202f;" horiz-adv-x="341" />
<glyph unicode="&#x2039;" horiz-adv-x="647" d="M82 469q-66 60 2 125l352 340q20 20 51 20q35 0 55.5 -19.5t20.5 -51.5q0 -24 -20 -47l-328 -306l322 -301q26 -23 26 -53q0 -29 -21 -49.5t-55 -20.5q-30 0 -53 23z" />
<glyph unicode="&#x203a;" horiz-adv-x="618" d="M53 162q0 25 25 53l311 299l-315 305q-21 30 -21 49q0 32 21 52t55 20q31 0 51 -20h-2l354 -340q66 -69 5 -125l-355 -340h2q-22 -25 -55 -25t-54.5 21t-21.5 51z" />
<glyph unicode="&#x205f;" horiz-adv-x="426" />
<glyph unicode="&#x20ac;" horiz-adv-x="1366" d="M-9.5 777.5q1.5 24.5 16 44.5t36.5 20h84q51 177 184 300.5t320 153.5q47 9 104 9q135 0 259.5 -49.5t211.5 -143.5q14 -18 14 -38t-13.5 -36.5t-31 -27t-38.5 -8t-37 19.5q-83 90 -203.5 122t-245.5 13q-131 -21 -230.5 -106.5t-144.5 -208.5h277q29 0 47 -20t19 -44.5 t-16.5 -44.5t-49.5 -20h-313q-2 -23 -2 -70q0 -31 2 -49h313q35 0 52 -32t2.5 -64.5t-54.5 -32.5h-281q57 -153 192 -248.5t296 -95.5q116 0 222.5 52t176.5 140q24 28 59 24.5t57.5 -37.5t0.5 -69q-77 -119 -225 -184t-297 -65q-221 0 -397 133t-234 350h-80 q-36 0 -49.5 32.5t1.5 64.5t48 32h66q-3 27 -3 53q0 36 3 66h-66q-27 0 -40.5 20t-12 44.5z" />
<glyph unicode="&#x2122;" horiz-adv-x="1216" d="M-57 1271q14 34 51 34h414q33 0 52 -21.5t19.5 -46.5t-18.5 -46.5t-53 -21.5h-136v-389q0 -42 -34.5 -59.5t-70.5 -0.5t-40 60v389h-133q-35 0 -50 34t-1 68zM530 782v455q0 37 25 58.5t57.5 15.5t53.5 -39l178 -254l180 254q21 33 53.5 39t57 -15.5t24.5 -58.5v-455 q0 -44 -36.5 -58t-72.5 4.5t-36 53.5v250l-109 -168q-22 -42 -60.5 -42t-60.5 42l-108 168v-250q0 -26 -23 -43.5t-50 -20t-50 14t-23 49.5z" />
<glyph unicode="&#x25fc;" horiz-adv-x="1064" d="M0 0v1065h1065v-1065h-1065z" />
</font>
</defs>
</svg>
